<?xml version="1.0" encoding="UTF-8" standalone="no"?>
<!-- Created with Inkscape (http://www.inkscape.org/) -->

<svg
   width="12.7mm"
   height="12.700155mm"
   viewBox="0 0 12.7 12.700155"
   version="1.1"
   id="svg5"
   inkscape:version="1.1.1 (c3084ef, 2021-09-22)"
   sodipodi:docname="aom.svg"
   xmlns:inkscape="http://www.inkscape.org/namespaces/inkscape"
   xmlns:sodipodi="http://sodipodi.sourceforge.net/DTD/sodipodi-0.dtd"
   xmlns="http://www.w3.org/2000/svg"
   xmlns:svg="http://www.w3.org/2000/svg">
  <sodipodi:namedview
     id="namedview7"
     pagecolor="#ffffff"
     bordercolor="#666666"
     borderopacity="1.0"
     inkscape:pageshadow="2"
     inkscape:pageopacity="0.0"
     inkscape:pagecheckerboard="0"
     inkscape:document-units="mm"
     showgrid="false"
     inkscape:zoom="0.82157676"
     inkscape:cx="408.36111"
     inkscape:cy="346.28535"
     inkscape:window-width="1312"
     inkscape:window-height="969"
     inkscape:window-x="0"
     inkscape:window-y="25"
     inkscape:window-maximized="0"
     inkscape:current-layer="layer1" />
  <defs
     id="defs2">
    <font
       id="icomoon"
       horiz-adv-x="1024"
       horiz-origin-x="0"
       horiz-origin-y="0"
       vert-origin-x="512"
       vert-origin-y="768"
       vert-adv-y="1024">
      <font-face
         units-per-em="1024"
         ascent="960"
         descent="-64"
         id="font-face344" />
      <missing-glyph
         horiz-adv-x="1024"
         id="missing-glyph346" />
      <glyph
         unicode=" "
         horiz-adv-x="512"
         d=""
         id="glyph348" />
      <glyph
         unicode=""
         glyph-name="Anti-DDoS"
         d="M394.261 390.955c0-65.984 53.525-119.509 119.509-119.509s119.509 53.504 119.509 119.509c0 66.005-119.509 169.408-119.509 281.6 0.021-114.283-119.509-215.595-119.509-281.6zM570.24 486.208c23.275-36.885 45.269-71.744 45.269-95.253 0-56.085-45.632-101.717-101.717-101.717-56.107 0-101.739 45.632-101.739 101.717 0 23.317 21.781 57.621 44.821 93.909 20.352 32.043 42.304 66.581 57.088 103.637 14.699-36.373 36.267-70.549 56.277-102.293zM889.301 728.597c-140.373 27.477-272.448 100.288-335.765 156.288-10.944 9.664-27.328 11.115-36.117 11.115-7.573 0-26.56-1.173-38.848-11.947-63.659-55.701-195.925-128.128-335.829-155.499-22.613-4.395-36.416-45.099-33.899-64.021 1.877-14.229 3.456-30.315 5.163-47.872 9.6-97.984 24.085-246.080 121.088-378.88 65.984-90.368 170.048-184.085 258.923-233.195 5.504-3.029 13.44-4.587 23.616-4.587 11.776 0 17.323 2.304 20.459 4.032 90.112 49.643 194.219 143.637 259.051 233.877 89.131 124.053 105.515 278.784 116.352 381.163 1.771 16.768 3.392 32.043 5.163 45.461 2.24 17.003-5.013 59.285-29.355 64.064zM876.352 670.144c-1.813-13.76-3.477-29.397-5.312-46.571-10.368-97.899-26.027-245.867-108.565-360.747-59.947-83.456-159.381-173.568-242.645-220.096-2.517-0.192-5.611 0.043-7.019 0.235-82.283 45.973-182.059 136.149-243.285 220.011-90.112 123.392-103.381 258.923-113.088 357.867-1.771 18.069-3.392 34.624-5.333 49.259-0.363 3.669 2.965 12.693 5.952 17.835 146.091 29.888 280.469 103.531 348.928 163.499 1.045 0.597 5.355 1.899 11.435 1.899 5.269 0 8.341-0.96 7.829-0.405 68.523-60.608 202.005-134.379 347.925-164.608 1.941-5.333 3.776-13.696 3.179-18.176z"
         id="glyph350" />
      <glyph
         unicode=""
         glyph-name="MapReduce"
         d="M736.491 581.931c-3.029 3.627-9.216 8.448-11.712 10.219-11.136 7.872-42.773 15.467-66.411 4.949-2.475 3.499-5.227 6.912-8 10.197-17.088 23.445-42.965 41.045-71.019 50.005-25.429 9.6-54.464 14.848-85.013 14.848-53.931 0-106.496-24.619-141.248-66.027-25.131-8.768-47.936-23.275-67.157-41.813-0.32-0.256-0.704-0.341-1.003-0.619-0.96-0.96-2.901-2.923-5.355-5.568-0.789-0.832-1.685-1.536-2.453-2.389l0.149-0.128c-20.843-22.741-72.448-86.059-59.755-142.955 6.912-30.912 31.488-54.016 73.003-68.693 3.947-1.387 4.501-8.875 4.16-24.021-0.32-14.699-0.661-33.067 11.072-44.693 5.653-5.611 13.163-8.96 22.4-9.941 2.539-0.277 5.205-0.341 7.637-0.299 1.771-0.192 43.776-4.181 75.307 29.781 32.128 34.432 40.832 93.931 25.877 176.853-0.832 4.779-4.8 8.448-9.451 8.96l-3.285-0.085c-5.952-1.088-9.941-6.805-8.832-12.779 13.376-74.496 6.421-129.067-20.181-157.845-21.845-23.637-50.517-23.509-58.56-22.912-2.091-0.085-3.968 0.043-5.739 0.213-4.373 0.448-7.723 1.728-9.685 3.669-5.077 4.971-4.843 16.981-4.565 28.672 0.363 17.024 0.768 38.251-18.816 45.12-33.877 12.011-53.717 29.76-58.88 52.779-12.715 56.555 60.693 129.899 61.44 130.624 0.512 0.491 0.789 1.152 1.173 1.728 17.515 16.64 38.293 29.525 61.163 37.077 1.941 0.64 3.648 1.813 4.928 3.413 30.699 37.909 78.059 60.544 126.677 60.544 47.147 0 89.856-13.461 118.912-36.608 4.608-3.883 9.109-7.936 13.312-12.267 0.064-0.064 0.128-0.128 0.192-0.192 1.643-1.685 3.115-3.456 4.672-5.184 1.536-1.792 3.072-3.541 4.565-5.376 2.283-2.816 4.309-5.717 6.251-8.619 0.491-0.768 1.216-1.557 1.643-2.304 0.107-0.171 0.256-0.299 0.384-0.469 8.811-13.867 14.315-28.224 18.005-40.555 2.389-7.787 7.467-28.331 8.128-49.408 0.811-24.939-3.392-31.936-5.355-41.6-0.491-2.261-0.043-4.651 1.195-6.592 8.747 8.981 13.973 17.003 16.043 43.605 1.088 13.931 1.963 27.051-0.789 45.483-3.755 25.237-11.499 38.485-15.147 46.336 15.936 7.893 40.661 1.579 46.187-2.347 2.539-1.771 6.613-5.205 7.552-6.336 0.768-1.045 2.859-5.184 4.245-8.384 35.904-90.56 39.104-158.571 9.515-202.133-29.76-43.755-83.712-50.283-113.237-50.283h-0.896v-0.064l-3.008 0.448c-3.925-19.392-16.96-35.797-35.285-44.139-7.744-3.371-15.957-5.077-24.341-5.077-21.995 0-42.176 11.797-52.416 29.077l7.957-39.488c13.12-8.341 28.843-12.907 44.267-12.907 11.349 0 23.040 2.517 33.835 7.296 19.797 8.661 35.029 24.469 43.307 43.947 34.923 2.133 86.4 13.632 117.376 59.221 33.792 49.771 31.339 124.459-7.467 222.272-1.579 3.691-4.672 10.411-7.467 13.76zM555.541 461.099c1.749-1.131 3.776-1.707 5.824-1.707 3.84 0 7.317 1.92 9.323 5.163 0.32 0.448 7.531 11.605 21.675 11.605 2.624 0 5.312-0.405 7.808-1.109l3.072-0.427c4.928 0 9.323 3.307 10.603 8.043 0.789 2.837 0.448 5.781-1.024 8.363-1.429 2.56-3.819 4.395-6.635 5.184-4.651 1.259-9.28 1.92-13.739 1.92-21.077 0-35.285-13.781-40.384-21.909-1.557-2.496-2.048-5.419-1.387-8.299 0.64-2.859 2.389-5.269 4.864-6.827zM871.253 716.864l-309.845 176.555c-26.048 14.848-69.184 14.848-95.275 0l-309.845-176.555c-26.837-15.296-47.829-51.456-47.829-82.304v-373.077c0-30.869 20.992-67.029 47.829-82.325l309.845-176.555c13.035-7.424 29.952-11.499 47.637-11.499s34.603 4.075 47.616 11.52l309.845 176.533c26.837 15.275 47.851 51.456 47.851 82.325v373.077c0.021 30.869-20.992 67.029-47.829 82.304zM876.437 261.461c0-15.851-12.544-37.419-26.304-45.269l-309.845-176.555c-13.163-7.509-39.808-7.509-53.013 0l-309.867 176.576c-13.76 7.851-26.283 29.419-26.283 45.269v373.077c0 15.829 12.544 37.397 26.283 45.248l309.845 176.533c6.613 3.755 16.277 5.909 26.517 5.909s19.925-2.155 26.496-5.909l309.845-176.555c13.781-7.829 26.304-29.397 26.304-45.248v-373.077z"
         id="glyph352" />
      <glyph
         unicode=""
         glyph-name="VPN"
         d="M545.835 576h-144.064v-256h21.333v128h122.731c26.432 0 47.936 22.592 47.936 50.347v27.307c0 27.755-21.504 50.347-47.936 50.347zM572.437 498.347c0-16-11.925-29.013-26.603-29.013h-122.731v85.333h122.731c14.677 0 26.603-13.013 26.603-29.013v-27.307zM300.949 385.301c-8.128-23.659-19.008-33.323-37.483-33.323h-11.392c-18.496 0-29.355 9.643-37.163 32.128l-42.731 193.685-20.821-4.565 43.072-194.88c3.883-11.264 15.637-44.224 52.672-47.147v-0.533h21.333v0.555c37.056 2.901 48.832 35.904 53.013 48.32l42.731 193.685-20.843 4.587-42.389-192.512zM849.771 576h-21.333v-234.773h-7.424c-22.613 0-33.088 6.549-39.979 25.045v0l-56.619 163.947c-4.245 11.349-17.152 45.888-60.309 45.888h-16.981v-0.107h-10.667v-256h21.333v234.773h6.315c19.029 0 30.187-9.152 38.485-31.317l56.619-163.947 10.965 3.243-10.88-3.499c10.048-26.859 29.653-39.381 61.717-39.381h28.779v256.128zM513.771 917.333c-258.795 0-469.333-210.539-469.333-469.333s210.539-469.333 469.333-469.333 469.333 210.539 469.333 469.333-210.539 469.333-469.333 469.333zM183.168 240.683c27.029-55.808 69.419-101.675 122.603-132.587l10.731 18.453c-44.544 25.899-80.96 63.061-106.155 108.117h672.363c-73.92-127.317-211.435-213.333-368.939-213.333-235.264 0-426.667 191.403-426.667 426.667 0 69.099 16.875 134.208 46.165 192h707.84l-7.403 15.317c-27.008 55.808-69.397 101.653-122.603 132.587l-10.731-18.475c44.565-25.899 80.981-63.040 106.155-108.096h-661.696c73.92 127.317 211.435 213.333 368.939 213.333 235.264 0 426.667-191.403 426.667-426.667 0-69.099-16.875-134.208-46.165-192h-718.528l7.424-15.317z"
         id="glyph354" />
      <glyph
         unicode=""
         glyph-name="WebScan"
         d="M583.403 414.805c19.584 23.083 30.315 52.011 30.315 82.603 0 34.197-13.312 66.325-37.483 90.496-24.171 24.192-56.32 37.504-90.517 37.504s-66.325-13.312-90.517-37.504c-24.171-24.171-37.483-56.32-37.483-90.496s13.312-66.325 37.483-90.517c24.171-24.171 56.32-37.483 90.517-37.483 30.613 0 59.52 10.731 82.603 30.315l83.328-83.328c2.091-2.091 4.821-3.115 7.552-3.115s5.461 1.045 7.552 3.115c4.16 4.16 4.16 10.923 0 15.083l-83.349 83.328zM561.131 421.973c-20.139-20.139-46.933-31.232-75.435-31.232s-55.275 11.093-75.435 31.232-31.232 46.933-31.232 75.435c0 28.48 11.093 55.275 31.232 75.413s46.933 31.253 75.435 31.253 55.275-11.115 75.435-31.253 31.232-46.933 31.232-75.413c0.021-28.501-11.072-55.296-31.232-75.435zM889.323 728.597c-140.416 27.477-272.491 100.288-335.787 156.288-10.923 9.664-27.307 11.115-36.096 11.115-7.573 0-26.539-1.152-38.869-11.925-63.659-55.723-195.925-128.149-335.872-155.499-21.291-4.16-36.651-42.987-33.877-64.021 1.877-14.251 3.456-30.315 5.163-47.851 9.6-98.005 24.085-246.080 121.088-378.923 66.005-90.347 170.048-184.064 258.923-233.195 5.504-3.051 13.44-4.587 23.595-4.587 11.797 0 17.344 2.304 20.48 4.032 90.112 49.621 194.219 143.595 259.051 233.877 89.109 124.032 105.515 278.741 116.352 381.099 1.771 16.768 3.392 32.085 5.163 45.525 2.261 17.024-5.013 59.328-29.312 64.064zM876.373 670.144c-1.813-13.76-3.499-29.44-5.312-46.613-10.368-97.899-26.048-245.824-108.565-360.725-59.968-83.435-159.381-173.568-242.667-220.075-2.56-0.149-5.589 0.064-7.019 0.235-82.261 45.995-182.037 136.171-243.264 220.011-90.133 123.392-103.403 258.923-113.109 357.867-1.771 18.069-3.392 34.624-5.333 49.28-0.363 3.669 2.965 12.693 5.952 17.813 146.091 29.867 280.448 103.531 348.885 163.499 1.067 0.597 5.419 1.899 11.499 1.899 5.248 0 8.363-0.939 7.829-0.405 68.48-60.608 201.941-134.357 347.925-164.608 1.92-5.333 3.755-13.717 3.179-18.176z"
         id="glyph356" />
      <glyph
         unicode=""
         glyph-name="WAF"
         d="M889.301 728.277c-140.395 27.477-272.469 100.288-335.765 156.267-10.923 9.685-27.328 11.136-36.117 11.136-7.573 0-26.56-1.173-38.848-11.947-63.701-55.723-195.989-128.149-335.872-155.499-21.291-4.16-36.651-42.987-33.877-64.021 1.877-14.251 3.456-30.315 5.163-47.851 9.6-98.005 24.085-246.080 121.088-378.923 66.005-90.347 170.048-184.064 258.923-233.195 5.504-3.051 13.44-4.587 23.595-4.587 11.797 0 17.344 2.304 20.48 4.032 90.112 49.621 194.219 143.595 259.051 233.877 89.131 124.053 105.515 278.763 116.352 381.141 1.771 16.747 3.392 32.043 5.163 45.461 2.261 17.067-4.992 59.371-29.333 64.107zM876.352 669.803c-1.813-13.76-3.477-29.419-5.312-46.571-10.368-97.92-26.027-245.845-108.565-360.768-59.968-83.435-159.381-173.568-242.667-220.075-2.56-0.128-5.589 0.064-7.019 0.235-82.261 45.995-182.037 136.171-243.264 220.011-90.112 123.413-103.381 258.923-113.088 357.888-1.771 18.069-3.392 34.624-5.333 49.28-0.363 3.669 2.965 12.693 5.952 17.813 146.048 29.867 280.405 103.531 348.907 163.52 1.045 0.576 5.355 1.899 11.435 1.899 5.227 0 8.405-1.024 7.829-0.427 68.501-60.608 201.963-134.357 347.925-164.608 1.963-5.355 3.797-13.717 3.2-18.197zM717.141 598.741c-74.731 14.656-145.003 53.397-178.709 83.2-5.632 4.971-14.165 5.739-18.731 5.739-3.947 0-13.824-0.597-20.203-6.187-33.877-29.653-104.256-68.181-178.731-82.752-10.773-2.112-18.88-22.571-17.472-33.28 1.003-7.573 1.835-16.128 2.752-25.451 5.099-52.011 12.8-130.56 64.213-200.96 35.008-47.936 90.197-97.643 137.301-123.669 2.837-1.579 6.955-2.368 12.245-2.368 6.080 0 8.896 1.152 10.56 2.069 47.808 26.325 103.019 76.181 137.387 124.032 47.232 65.771 55.936 147.861 61.696 202.176 0.939 8.917 1.813 17.045 2.752 24.192 1.131 8.555-2.731 30.805-15.061 33.259zM324.437 568.277c-0.256 2.048 1.728 7.317 3.413 10.133 41.984 8.555 81.92 24 115.712 41.365v-76.075h-116.437c-0.875 8.917-1.707 17.216-2.688 24.576zM329.301 522.347h279.595v-144.747h-238.101c-28.48 50.176-36.864 102.037-41.493 144.747zM443.563 289.6c-20.992 19.456-40.619 40.875-56.064 62.037-1.109 1.536-1.941 3.093-3.008 4.629h59.072v-66.667zM650.432 351.573c-32.171-44.821-85.781-93.269-128.597-117.12-0.555-0.107-1.28-0.107-2.027-0.107-1.472 0-2.581 0.107-2.155-0.192-16.96 9.408-35.051 22.101-52.779 36.672v85.44h188.48c-1.024-1.536-1.835-3.179-2.923-4.693zM666.453 377.6h-36.224v144.747h75.691c-4.992-42.773-13.867-96.832-39.467-144.747zM708.267 543.68h-243.371v87.019c0 0.213-0.128 0.405-0.149 0.619 19.413 11.349 36.139 23.040 48.555 33.92 0.576 0.341 2.987 1.109 6.421 1.109 2.987 0 4.736-0.725 4.608-0.384 36.395-32.213 107.349-71.403 184.896-87.381 1.109-2.923 2.219-7.744 1.856-10.325-0.981-7.232-1.856-15.531-2.816-24.576z"
         id="glyph358" />
      <glyph
         unicode=""
         glyph-name="Security"
         d="M880.512 729.877c-137.131 26.731-265.237 96.96-331.392 154.688-11.413 9.963-27.008 11.435-35.307 11.435h-0.064c-8.299 0-23.893-1.472-35.328-11.435-66.155-57.728-194.261-127.957-331.392-154.688-19.861-3.883-40.917-44.181-38.421-65.856 1.6-13.909 2.88-29.675 4.267-46.869 7.872-97.664 19.776-245.269 117.035-378.091 64.96-88.704 173.077-185.259 262.912-234.752 1.92-1.067 7.808-4.309 20.843-4.309 0.043 0 0.085 0 0.128 0.021 0.021-0.021 0.064-0.021 0.107-0.021 13.035 0 18.901 3.243 20.843 4.309 89.835 49.515 197.952 146.048 262.912 234.752 97.259 132.821 109.163 280.427 117.035 378.091 1.387 17.195 2.667 32.939 4.267 46.869 2.496 21.675-18.56 61.973-38.443 65.856zM872.149 620.565c-7.488-92.907-18.816-233.323-108.971-356.416-61.205-83.605-162.56-174.379-247.147-221.547-0.725-0.064-1.515-0.064-2.261-0.064s-1.536 0-2.261 0.064c-84.587 47.168-185.941 137.941-247.147 221.547-90.155 123.093-101.483 263.488-108.971 356.395-1.429 17.749-2.752 33.963-4.373 47.936 0.043 4.309 5.504 15.275 9.579 20.693 152.491 30.933 281.387 107.029 345.387 162.965 0.747 0.427 3.605 1.301 7.744 1.301v0 0h0.064c4.117 0 6.997-0.875 7.744-1.301 64-55.936 192.896-132.032 345.387-162.965 4.075-5.419 9.515-16.384 9.579-20.693-1.6-13.952-2.923-30.187-4.352-47.915zM723.349 609.067c-78.357 15.275-151.573 55.403-189.355 88.405-6.549 5.675-15.467 6.528-20.203 6.528h-0.043c-4.736 0-13.653-0.832-20.181-6.528-37.803-32.981-110.997-73.109-189.355-88.405-11.349-2.219-23.381-25.259-21.952-37.632 0.917-7.957 1.643-16.96 2.432-26.773 4.501-55.808 11.307-140.16 66.88-216.043 37.12-50.688 98.901-105.856 150.229-134.144 1.109-0.619 4.459-2.475 11.904-2.475h0.128c7.445 0 10.795 1.856 11.904 2.453 51.328 28.288 113.109 83.456 150.229 134.144 55.573 75.904 62.379 160.235 66.88 216.043 0.789 9.835 1.515 18.837 2.432 26.773 1.451 12.416-10.581 35.435-21.931 37.653zM718.571 546.603c-4.288-53.099-10.752-133.312-62.272-203.648-34.987-47.765-92.885-99.648-141.227-126.592-0.405-0.043-0.875-0.043-1.28-0.043-0.427 0-0.875 0-1.301 0.043-48.341 26.944-106.24 78.827-141.227 126.592-51.52 70.336-57.984 150.571-62.272 203.648-0.811 10.133-1.579 19.413-2.496 27.392 0.021 2.453 3.136 8.725 5.461 11.819 87.147 17.685 160.789 61.163 197.376 93.12 0.427 0.256 2.069 0.747 4.416 0.747v0 0h0.043c2.347 0 3.989-0.491 4.416-0.747 36.587-31.957 110.229-75.435 197.376-93.12 2.325-3.093 5.44-9.365 5.461-11.819-0.917-7.979-1.664-17.259-2.475-27.392z"
         id="glyph360" />
      <glyph
         unicode=""
         glyph-name="SI"
         d="M662.912 545.621c-6.976-3.797-9.515-12.544-5.717-19.499 13.013-23.829 19.861-50.795 19.861-78.123 0-90.069-73.237-163.328-163.285-163.328s-163.285 73.28-163.285 163.328c0 90.069 73.259 163.328 163.307 163.328 7.872 0 14.357 6.421 14.357 14.336s-6.464 14.357-14.357 14.357c-105.877 0-192-86.123-192-192 0-105.856 86.144-192 192-192s192 86.144 192 192c0 32.128-8.107 63.893-23.381 91.904-3.84 6.955-12.608 9.515-19.499 5.696zM513.771 380.629c-37.184 0-67.392 30.208-67.392 67.371s30.208 67.392 67.392 67.392c7.851 0 14.315 6.421 14.315 14.315s-6.443 14.293-14.315 14.293c-52.971 0-96-43.051-96-96 0-52.928 43.029-96 96-96 52.928 0 96 43.072 96 96 0 8.939-1.259 17.856-3.691 26.368-2.197 7.552-10.069 12.032-17.685 9.792-7.659-2.155-12.011-10.091-9.856-17.664 1.749-5.973 2.581-12.181 2.581-18.517 0.021-37.12-30.208-67.349-67.349-67.349zM889.301 728.597c-140.373 27.477-272.448 100.288-335.765 156.288-10.944 9.664-27.328 11.115-36.117 11.115-7.573 0-26.56-1.173-38.848-11.947-63.659-55.701-195.925-128.128-335.829-155.499-22.613-4.395-36.416-45.099-33.899-64.021 1.877-14.229 3.456-30.315 5.163-47.872 9.6-97.984 24.085-246.080 121.088-378.88 65.984-90.368 170.048-184.085 258.923-233.195 5.504-3.029 13.44-4.587 23.616-4.587 11.776 0 17.323 2.304 20.459 4.032 90.112 49.643 194.219 143.637 259.051 233.877 89.131 124.053 105.515 278.784 116.352 381.163 1.771 16.768 3.392 32.043 5.163 45.461 2.24 17.003-5.013 59.285-29.355 64.064zM876.352 670.144c-1.813-13.76-3.477-29.397-5.312-46.571-10.368-97.899-26.027-245.867-108.565-360.747-59.947-83.456-159.381-173.568-242.645-220.096-2.517-0.171-5.611 0.043-7.019 0.235-82.283 45.973-182.059 136.149-243.285 220.011-90.112 123.392-103.381 258.923-113.088 357.867-1.771 18.069-3.392 34.624-5.333 49.259-0.363 3.669 2.965 12.693 5.952 17.835 146.091 29.888 280.469 103.531 348.928 163.499 1.045 0.597 5.355 1.899 11.435 1.899 5.269 0 8.341-0.96 7.829-0.405 68.523-60.608 202.005-134.379 347.925-164.608 1.941-5.333 3.776-13.696 3.179-18.176z"
         id="glyph362" />
      <glyph
         unicode=""
         glyph-name="CodeCI"
         d="M593.771 597.333h-160c-5.888 0-10.667-4.779-10.667-10.667s4.779-10.667 10.667-10.667h160c5.888 0 10.667 4.779 10.667 10.667s-4.757 10.667-10.667 10.667zM705.771 693.333h-384c-29.419 0-53.333-23.936-53.333-53.333v-256c0-29.397 23.915-53.333 53.333-53.333h384c29.419 0 53.333 23.936 53.333 53.333v256c0 29.397-23.915 53.333-53.333 53.333zM737.771 384c0-17.643-14.357-32-32-32h-384c-17.643 0-32 14.357-32 32v256c0 17.643 14.357 32 32 32h384c17.643 0 32-14.357 32-32v-256zM855.104 853.333h-682.667c-35.285 0-64-28.715-64-64v-474.539c0-30.869 20.992-67.029 47.829-82.325l309.867-176.533c13.013-7.424 29.931-11.52 47.616-11.52s34.603 4.096 47.616 11.52l309.867 176.533c26.837 15.296 47.829 51.456 47.829 82.325v474.539c0.043 35.285-28.651 64-63.957 64zM876.437 314.795c0-15.851-12.544-37.419-26.283-45.269l-309.867-176.533c-13.205-7.531-39.787-7.531-52.992 0l-309.888 176.533c-13.76 7.851-26.283 29.419-26.283 45.269v474.539c0 11.755 9.557 21.333 21.333 21.333h682.667c11.776 0 21.333-9.579 21.333-21.333v-474.539z"
         id="glyph364" />
      <glyph
         unicode=""
         glyph-name="DeployMan"
         d="M732.437 746.667h-170.667c-29.461 0-53.333-23.872-53.333-53.333v-85.333c0-29.461 23.872-53.333 53.333-53.333h170.667c29.461 0 53.333 23.872 53.333 53.333v85.333c0 29.461-23.872 53.333-53.333 53.333zM764.437 608c0-17.664-14.315-32-32-32h-170.667c-17.685 0-32 14.336-32 32v85.333c0 17.664 14.315 32 32 32h170.667c17.685 0 32-14.336 32-32v-85.333zM412.437 746.667h-128c-29.461 0-53.333-23.872-53.333-53.333v-341.333c0-29.461 23.872-53.333 53.333-53.333h128c29.461 0 53.333 23.872 53.333 53.333v341.333c0 29.461-23.872 53.333-53.333 53.333zM444.437 352c0-17.664-14.315-32-32-32h-128c-17.685 0-32 14.336-32 32v341.333c0 17.664 14.315 32 32 32h128c17.685 0 32-14.336 32-32v-341.333zM732.437 512h-170.667c-29.461 0-53.333-23.872-53.333-53.333v-106.667c0-29.461 23.872-53.333 53.333-53.333h170.667c29.461 0 53.333 23.872 53.333 53.333v106.667c0 29.461-23.872 53.333-53.333 53.333zM764.437 352c0-17.664-14.315-32-32-32h-170.667c-17.685 0-32 14.336-32 32v106.667c0 17.664 14.315 32 32 32h170.667c17.685 0 32-14.336 32-32v-106.667zM855.104 852.459h-682.667c-35.285 0-64-28.715-64-64v-474.539c0-30.869 21.013-67.051 47.851-82.325l309.845-176.533c13.035-7.424 29.952-11.499 47.637-11.499s34.603 4.075 47.637 11.499l309.845 176.533c26.837 15.296 47.851 51.456 47.851 82.325v474.539c0 35.285-28.693 64-64 64zM876.437 313.92c0-15.829-12.544-37.419-26.304-45.248l-309.845-176.533c-13.205-7.552-39.808-7.552-53.013 0l-309.867 176.533c-13.76 7.829-26.304 29.419-26.304 45.248v474.539c0 11.776 9.579 21.333 21.333 21.333h682.667c11.755 0 21.333-9.557 21.333-21.333v-474.539z"
         id="glyph366" />
      <glyph
         unicode=""
         glyph-name="TestMan"
         d="M701.504 677.333h-347.904c-5.547 9.515-15.765 16-27.563 16-17.664 0-32-14.336-32-32s14.336-32 32-32c15.829 0 28.907 11.563 31.467 26.667h344c19.179 0 36.267-23.851 36.267-42.667v-5.333c0-18.816-17.088-42.667-36.267-42.667h-272.896c-4.416 12.395-16.149 21.333-30.037 21.333-13.909 0-25.621-8.939-30.037-21.333h-42.496c-31.744 0-57.579-23.915-57.579-53.333s25.835-53.333 57.579-53.333h272.896c4.416-12.395 16.128-21.333 30.037-21.333s25.643 8.939 30.037 21.333h42.496c20.416 0 36.267-20.053 36.267-37.333v-10.667c0-17.28-15.851-37.333-36.267-37.333h-345.429c-4.416 12.395-16.128 21.333-30.037 21.333-17.664 0-32-14.336-32-32s14.336-32 32-32c13.888 0 25.621 8.939 30.037 21.333h345.429c32.981 0 57.6 30.976 57.6 58.667v10.667c0 27.691-24.619 58.667-57.6 58.667h-42.496c-4.416 12.395-16.149 21.333-30.037 21.333s-25.621-8.939-30.037-21.333h-272.896c-19.989 0-36.245 14.357-36.245 32s16.277 32 36.245 32h42.496c4.416-12.395 16.128-21.333 30.037-21.333 13.888 0 25.621 8.939 30.037 21.333h272.896c31.915 0 57.6 35.029 57.6 64v5.333c0 28.971-25.685 64-57.6 64zM855.104 853.333h-682.667c-35.285 0-64-28.715-64-64v-474.539c0-31.403 20.565-66.795 47.829-82.325l309.845-176.533c13.013-7.424 29.931-11.499 47.616-11.499 17.707 0 34.624 4.075 47.637 11.499l309.845 176.533c27.285 15.552 47.851 50.965 47.851 82.325v474.539c0.043 35.285-28.651 64-63.957 64zM876.437 314.795c0-15.829-12.544-37.419-26.304-45.248l-309.845-176.533c-13.205-7.531-39.808-7.552-53.013 0l-309.867 176.533c-13.76 7.829-26.283 29.419-26.283 45.248v474.539c0 11.776 9.557 21.333 21.333 21.333h682.667c11.776 0 21.333-9.557 21.333-21.333v-474.539z"
         id="glyph368" />
      <glyph
         unicode=""
         glyph-name="Storage"
         d="M860.672 711.445l-299.264 171.2c-26.048 14.912-69.205 14.912-95.253 0l-299.264-171.2c-26.773-15.317-47.765-51.499-47.765-82.368v-362.176c0-30.848 20.971-67.051 47.765-82.368l299.264-171.2c13.013-7.467 29.931-11.563 47.616-11.563s34.603 4.096 47.616 11.563l299.264 171.221c26.795 15.317 47.765 51.52 47.765 82.368v362.155c0.021 30.869-20.949 67.051-47.744 82.368zM865.771 266.923c0-15.851-12.523-37.461-26.283-45.333l-299.264-171.221c-13.163-7.531-39.701-7.531-52.885 0l-299.264 171.2c-13.76 7.893-26.283 29.483-26.283 45.333v362.176c0 15.851 12.523 37.461 26.283 45.333l299.264 171.221c6.592 3.755 16.213 5.909 26.432 5.909s19.861-2.155 26.432-5.931l299.264-171.2c13.76-7.872 26.283-29.483 26.283-45.333v-362.155zM746.795 613.653c-7.275-4.203-12.48-11.008-14.677-19.115-1.216-4.544-1.301-9.173-0.491-13.675l-188.629-108.907c-7.552 7.595-17.984 12.288-29.525 12.288s-21.973-4.693-29.525-12.288l-188.629 108.907c0.811 4.501 0.725 9.131-0.491 13.675-2.176 8.128-7.381 14.912-14.677 19.115-14.571 8.405-34.667 2.944-43.029-11.52-4.203-7.275-5.333-15.765-3.136-23.893s7.403-14.912 14.677-19.115c4.779-2.752 10.219-4.224 15.723-4.224 7.509 0 14.528 2.88 20.117 7.573l188.907-109.056c-0.939-3.477-1.6-7.040-1.6-10.816 0-19.285 13.184-35.371 30.976-40.107v-217.984c-12.096-4.395-20.821-15.893-20.821-29.504 0-17.365 14.123-31.488 31.488-31.488s31.488 14.123 31.488 31.488c0 13.611-8.725 25.109-20.821 29.504v217.984c17.792 4.736 30.976 20.8 30.976 40.107 0 3.755-0.661 7.339-1.6 10.816l188.907 109.077c5.611-4.693 12.629-7.573 20.139-7.573 5.504 0 10.944 1.451 15.723 4.224 7.275 4.203 12.48 11.008 14.677 19.115s1.045 16.619-3.136 23.893c-8.341 14.443-28.459 19.904-43.008 11.499z"
         id="glyph370" />
      <glyph
         unicode=""
         glyph-name="CodeCheck"
         d="M513.771 757.333c-147.051 0-266.667-119.616-266.667-266.667s119.616-266.667 266.667-266.667 266.667 119.616 266.667 266.667-119.616 266.667-266.667 266.667zM268.992 480h85.333c3.008-45.269 24.747-85.504 57.728-112.747l-49.707-69.227c-54.421 42.901-90.176 108.224-93.355 181.973zM375.659 480h117.333l-68.437-95.317c-27.627 23.296-45.973 57.173-48.896 95.317zM503.104 245.867c-45.44 1.963-87.701 16.171-123.499 39.637l49.835 69.419c21.675-13.504 46.72-21.952 73.643-23.723v-85.333zM503.104 352.533c-22.293 1.707-43.072 8.725-61.184 19.755l61.184 85.227v-104.981zM503.104 501.333h-127.467c5.205 67.947 59.52 122.24 127.467 127.467v-127.467zM503.104 650.133c-79.701-5.291-143.509-69.077-148.8-148.8h-85.333c5.483 126.763 107.392 228.629 234.133 234.133v-85.333zM524.437 628.8c58.069-4.459 106.197-44.715 122.219-98.773-12.181-5.099-21.355-15.723-24.725-28.693h-97.515v127.467zM524.437 480h97.515c3.371-12.971 12.544-23.595 24.725-28.693-16.043-54.037-64.171-94.315-122.219-98.773v127.467zM524.437 245.867v85.333c68.885 4.565 125.845 52.8 143.509 117.291 17.643 2.027 31.957 14.677 36.309 31.509h54.293c-5.461-126.763-107.371-228.651-234.112-234.133zM704.277 501.333c-4.373 16.832-18.667 29.483-36.309 31.509-17.664 64.469-74.645 112.704-143.509 117.269v85.333c126.741-5.483 228.629-107.371 234.133-234.133h-54.315zM855.104 853.333h-682.667c-35.285 0-64-28.715-64-64v-474.539c0-30.869 20.992-67.029 47.829-82.325l309.867-176.533c13.013-7.424 29.931-11.52 47.616-11.52s34.603 4.075 47.616 11.52l309.867 176.533c26.837 15.296 47.829 51.456 47.829 82.325v474.539c0.043 35.285-28.651 64-63.957 64zM876.437 314.795c0-15.829-12.544-37.397-26.283-45.269l-309.867-176.533c-13.163-7.509-39.829-7.509-52.992 0l-309.888 176.533c-13.76 7.851-26.283 29.419-26.283 45.269v474.539c0 11.755 9.557 21.333 21.333 21.333h682.667c11.776 0 21.333-9.579 21.333-21.333v-474.539zM364.437 592c17.664 0 32 14.336 32 32s-14.336 32-32 32c-17.664 0-32-14.336-32-32s14.336-32 32-32z"
         id="glyph372" />
      <glyph
         unicode=""
         glyph-name="ELB"
         d="M855.104 330.667c-4.885 0-9.515-0.875-13.995-2.091l-279.275 418.901c9.792 11.243 15.936 25.771 15.936 41.856 0 35.307-28.693 64-64 64-35.328 0-64-28.693-64-64 0-16.619 6.507-31.637 16.917-43.029l-279.125-418.091c-4.821 1.451-9.835 2.453-15.125 2.453-29.44 0-53.333-23.915-53.333-53.333 0-29.44 23.893-53.333 53.333-53.333 7.765 0 15.104 1.749 21.76 4.736l255.936-125.504c1.813-33.707 29.483-60.565 63.637-60.565 34.261 0 62.059 27.051 63.68 60.928l256.469 124.843c6.485-2.816 13.632-4.416 21.163-4.416 29.419 0 53.333 23.893 53.333 53.333 0.021 29.397-23.872 53.312-53.312 53.312zM172.437 245.333c-17.643 0-32 14.357-32 32s14.357 32 32 32 32-14.357 32-32c0-17.643-14.336-32-32-32zM462.571 144.661l-239.296 117.355c1.472 4.885 2.496 9.963 2.496 15.317 0 16.427-7.616 30.955-19.328 40.747l277.184 415.147c2.837-1.536 5.76-2.88 8.832-3.968v-562.517c-12.053-4.288-22.4-11.989-29.888-22.080zM513.771 64c-23.531 0-42.667 19.136-42.667 42.667s19.136 42.667 42.667 42.667 42.667-19.136 42.667-42.667c0-23.531-19.136-42.667-42.667-42.667zM801.771 277.333c0-5.547 1.088-10.795 2.667-15.829l-239.616-116.629c-7.488 9.984-17.749 17.6-29.717 21.867v562.517c3.541 1.259 6.891 2.837 10.112 4.672l276.757-415.125c-12.203-9.771-20.203-24.619-20.203-41.472zM855.104 245.333c-17.643 0-32 14.357-32 32s14.357 32 32 32 32-14.357 32-32c0-17.643-14.336-32-32-32z"
         id="glyph374" />
      <glyph
         unicode=""
         glyph-name="EAB"
         d="M490.688 332.245c16.747-12.608 40.043-9.941 53.803 5.376l166.293 287.445c0 0-228.885-238.251-229.376-239.019l-0.384-0.619c-10.923-17.429-7.061-40.576 9.664-53.184zM86.080 341.333c11.2 0 20.309 9.088 20.309 20.352 0 225.131 182.741 408.277 407.403 408.277 224.619 0 407.381-183.147 407.381-408.277 0-11.264 9.109-20.352 20.309-20.352s20.309 9.088 20.309 20.352c0 247.573-200.96 448.981-448 448.981s-448-201.408-448-448.981c-0.021-11.264 9.088-20.352 20.288-20.352zM565.952 543.979c5.717-1.707 11.584 1.643 13.205 7.296 1.643 5.653-1.621 11.584-7.296 13.205-18.795 5.419-38.336 8.171-58.069 8.171-115.413 0-209.323-93.888-209.323-209.323 0-5.888 4.779-10.667 10.667-10.667s10.667 4.779 10.667 10.667c0 103.637 84.331 187.989 187.989 187.989 17.728 0 35.264-2.453 52.16-7.339zM940.736 256h-853.909c-11.605 0-21.035-9.536-21.035-21.333s9.429-21.333 21.035-21.333h853.909c11.605 0 21.035 9.536 21.035 21.333s-9.408 21.333-21.035 21.333zM854.549 149.333h-681.536c-12.075 0-21.888-9.536-21.888-21.333s9.813-21.333 21.888-21.333h681.536c12.075 0 21.888 9.536 21.888 21.333s-9.792 21.333-21.888 21.333zM701.781 373.568c0-5.888 4.779-10.667 10.667-10.667s10.667 4.779 10.667 10.667c0 42.731-12.8 83.84-36.992 118.827-3.349 4.864-10.027 6.101-14.848 2.709-4.843-3.349-6.059-10.005-2.709-14.827 21.696-31.445 33.216-68.331 33.216-106.709z"
         id="glyph376" />
      <glyph
         unicode=""
         glyph-name="AS"
         d="M962.453 149.568c-24.811 7.957-67.605 148.949-91.584 301.76-1.131 7.211-2.347 14.741-3.627 22.443 5.419 30.912 16.043 87.381 30.229 142.251 1.472 5.717-1.963 11.52-7.659 12.992-5.717 1.493-11.52-1.963-12.992-7.659-7.915-30.677-14.741-61.845-20.203-88.896-23.467 119.317-62.677 256.576-118.827 256.576-52.181 0-89.728-118.656-113.6-231.232-21.781 93.205-58.219 209.899-104.213 209.899-50.88 0-90.091-142.997-110.656-238.869-23.403 120.128-62.848 260.181-119.552 260.181-55.893 0-94.997-136.064-118.507-255.019-5.568 26.709-12.501 57.301-20.523 87.445-1.515 5.696-7.445 9.109-13.056 7.552-5.675-1.515-9.067-7.339-7.552-13.056 14.187-53.269 24.917-108.011 30.656-139.456-1.472-8.683-2.837-17.109-4.096-25.173-23.893-152.363-66.517-292.971-91.371-301.675-11.563-0.256-20.885-9.707-20.885-21.333 0-11.797 9.557-21.333 21.333-21.333 55.125 0 93.888 132.267 117.483 250.005 21.312-97.387 59.072-229.291 107.371-229.291 47.637 0 85.013 128.256 106.475 225.195 23.68-116.672 62.208-245.909 116.672-245.909 57.323 0 96.96 142.997 120.235 263.957 20.437-101.504 57.877-243.243 107.499-243.243 46.656 0 82.56 125.483 103.68 224.875 23.68-116.587 62.187-245.589 116.608-245.589 11.776 0 21.675 9.515 21.675 21.291-0.021 11.797-9.237 21.312-21.013 21.312zM290.624 149.013c-30.443 0-71.68 130.453-96.981 264.064 1.877 10.965 3.605 21.568 5.184 31.595 24 152.789 66.795 293.781 90.261 301.76 24.832-7.936 67.627-148.928 91.605-301.76 1.792-11.477 3.797-23.68 5.995-36.352-25.344-131.947-65.963-259.307-96.064-259.307zM604.715 451.307c-24-152.811-66.795-293.803-90.24-301.76-24.811 7.957-67.605 148.949-91.605 301.76-0.64 4.032-1.301 8.149-1.963 12.331 23.829 135.979 66.987 277.376 98.261 277.376 28.949 0 68.096-121.301 92.651-247.189-2.645-14.869-5.013-29.184-7.104-42.517zM741.504 149.013c-30.635 0-72.768 142.123-96.896 281.707 0.768 4.757 1.536 9.429 2.24 13.973 23.957 152.789 66.752 293.781 90.219 301.76 24.832-7.936 67.648-148.928 91.627-301.76 1.749-11.157 3.691-22.997 5.824-35.285-24.533-132.309-63.957-260.395-93.013-260.395z"
         id="glyph378" />
      <glyph
         unicode=""
         glyph-name="SFS"
         d="M855.104 714.667h-412.011l-69.333 74.667h-201.323c-35.285 0-64-28.715-64-64v-554.667c0-35.285 28.715-64 64-64h682.667c35.285 0 64 28.715 64 64v480c0 35.285-28.693 64-64 64zM876.437 170.667c0-11.776-9.579-21.333-21.333-21.333h-682.667c-11.755 0-21.333 9.557-21.333 21.333v384h725.333v-384zM876.437 576h-725.333v149.333c0 11.776 9.579 21.333 21.333 21.333h182.699l69.333-74.667h430.635c11.755 0 21.333-9.557 21.333-21.333v-74.667z"
         id="glyph380" />
      <glyph
         unicode=""
         glyph-name="ECS"
         d="M723.797 234.667h-436.459c-5.888 0-10.667-4.779-10.667-10.667s4.779-10.667 10.667-10.667h436.459c5.888 0 10.667 4.779 10.667 10.667s-4.779 10.667-10.667 10.667zM673.771 426.667c-17.664 0-32-14.336-32-32s14.336-32 32-32c17.664 0 32 14.336 32 32 0 17.643-14.336 32-32 32zM755.52 617.003c-34.709 100.245-129.707 172.331-241.749 172.331s-207.019-72.085-241.728-172.331c-128-14.144-227.605-122.56-227.605-254.336 0-141.376 114.624-256 256-256h426.667c141.376 0 256 114.624 256 256 0 131.776-99.584 240.192-227.584 254.336zM727.104 149.333h-426.667c-117.632 0-213.333 95.701-213.333 213.333 0 108.885 81.515 199.979 189.632 211.925 16.363 1.813 30.229 12.885 35.627 28.437 29.76 85.909 110.699 143.637 201.408 143.637s171.669-57.707 201.408-143.616c5.397-15.573 19.264-26.645 35.627-28.437 108.096-11.947 189.632-103.061 189.632-211.925 0-117.653-95.68-213.355-213.333-213.355zM673.771 490.667h-320c-53.013 0-96-42.987-96-96s42.987-96 96-96h320c53.013 0 96 42.987 96 96s-42.965 96-96 96zM673.771 320h-320c-41.173 0-74.667 33.493-74.667 74.667s33.493 74.667 74.667 74.667h320c41.173 0 74.667-33.493 74.667-74.667s-33.493-74.667-74.667-74.667z"
         id="glyph382" />
      <glyph
         unicode=""
         glyph-name="OBS"
         d="M755.52 617.003c-34.709 100.245-129.707 172.331-241.728 172.331-112.043 0-207.019-72.085-241.728-172.331-128.021-14.144-227.605-122.56-227.605-254.336 0-141.376 114.624-256 256-256h426.667c141.376 0 256 114.624 256 256 0 131.776-99.605 240.192-227.605 254.336zM588.437 149.333h-149.333v181.333h-117.333c-7.808 0-10.987 1.792-11.349 2.112-0.085 0.811 0.896 4.331 6.4 9.856l174.315 174.336c5.995 5.995 13.504 10.005 22.464 9.216 8.491-0.043 16.427-3.413 22.357-9.472l169.707-173.653c5.653-5.781 6.4-9.387 6.357-9.856-0.384-0.533-3.499-2.539-11.584-2.539h-112v-181.333zM727.125 149.333h-117.333v160h90.667c21.483 0 28.779 9.707 31.211 15.488s4.288 17.771-10.731 33.152l-169.707 173.653c-9.92 10.176-23.253 15.808-37.483 15.893h-0.32c-14.123 0-27.371-5.483-37.355-15.467l-174.315-174.336c-15.211-15.211-13.483-27.157-11.093-32.917 2.389-5.781 9.6-15.445 31.104-15.445h96v-160.021h-117.333c-117.632 0-213.333 95.701-213.333 213.333 0 108.885 81.515 199.979 189.611 211.925 16.384 1.813 30.251 12.885 35.627 28.437 29.781 85.909 110.72 143.637 201.451 143.637s171.669-57.707 201.408-143.616c5.397-15.573 19.264-26.645 35.627-28.437 108.096-11.947 189.611-103.061 189.611-211.925 0.021-117.653-95.68-213.355-213.312-213.355z"
         id="glyph384" />
      <glyph
         unicode=""
         glyph-name="M-OLAP"
         d="M291.541 521.557c7.104-4.096 15.189-6.272 23.381-6.272 16.683 0 32.235 8.96 40.555 23.403 12.907 22.336 5.227 51.029-17.131 63.936-21.589 12.459-51.52 4.395-63.936-17.131-12.928-22.357-5.227-51.029 17.131-63.936zM292.864 574.827c4.544 7.872 13.013 12.736 22.101 12.736 4.437 0 8.832-1.173 12.715-3.413 12.16-7.019 16.363-22.635 9.344-34.795-6.763-11.691-22.976-16.149-34.816-9.323-12.181 7.019-16.363 22.635-9.344 34.795zM513.472 265.024c-25.813 0-46.805-20.992-46.805-46.805s20.992-46.805 46.805-46.805c25.792 0 46.784 20.992 46.784 46.805s-20.992 46.805-46.784 46.805zM513.472 192.768c-14.037 0-25.472 11.435-25.472 25.472s11.435 25.472 25.472 25.472 25.451-11.435 25.451-25.472-11.413-25.472-25.451-25.472zM871.275 716.864l-309.867 176.555c-26.048 14.848-69.205 14.848-95.253 0l-309.867-176.555c-26.837-15.296-47.829-51.456-47.829-82.304v-373.077c0-30.869 20.992-67.029 47.829-82.325l309.867-176.555c13.013-7.424 29.931-11.52 47.616-11.52s34.603 4.075 47.616 11.52l309.867 176.555c26.837 15.296 47.829 51.456 47.829 82.325v373.077c0.021 30.848-20.971 67.008-47.808 82.304zM876.437 261.461c0-15.851-12.544-37.419-26.283-45.269l-309.867-176.555c-13.163-7.509-39.829-7.509-52.992 0l-309.888 176.576c-13.76 7.851-26.283 29.419-26.283 45.269v373.077c0 15.829 12.544 37.397 26.283 45.248l309.867 176.555c6.592 3.755 16.256 5.909 26.496 5.909s19.925-2.155 26.496-5.909l309.867-176.555c13.76-7.851 26.283-29.419 26.283-45.248v-373.099zM730.048 364.139c-14.037 8.107-31.147 5.568-42.475-4.885l-117.632 67.925c2.283 6.357 3.755 13.12 3.755 20.288 0 7.147-1.451 13.931-3.755 20.288l106.304 61.376-10.667 18.475-106.347-61.397c-8.853 10.453-21.035 17.877-35.093 20.416v135.723c14.699 4.565 25.451 18.133 25.451 34.347 0 19.947-16.171 36.139-36.139 36.139-19.947 0-36.139-16.171-36.139-36.139 0-16.213 10.752-29.781 25.472-34.347v-135.723c-14.059-2.517-26.24-9.963-35.115-20.416l-106.347 61.397-10.667-18.475 106.304-61.376c-2.283-6.357-3.755-13.141-3.755-20.288s1.451-13.909 3.755-20.288l-117.632-67.925c-11.307 10.453-28.437 12.992-42.496 4.885-17.28-9.984-23.189-32.085-13.227-49.365s32.064-23.211 49.365-13.227c14.037 8.107 20.416 24.192 17.003 39.232l117.675 67.947c8.875-10.453 21.056-17.899 35.115-20.416v-122.667h21.333v122.667c14.037 2.517 26.219 9.963 35.093 20.416l117.675-67.947c-3.392-15.040 2.965-31.125 17.003-39.232 17.28-9.984 39.381-4.053 49.365 13.227s4.117 39.381-13.184 49.365zM688.597 602.624c-10.837-6.251-18.581-16.341-21.803-28.437-3.221-12.075-1.557-24.683 4.693-35.52 8.341-14.443 23.872-23.403 40.555-23.403 8.171 0 16.256 2.176 23.36 6.272 10.837 6.251 18.581 16.341 21.803 28.437 3.221 12.075 1.557 24.683-4.693 35.52-12.395 21.504-42.304 29.611-63.915 17.131zM736.597 555.499c-1.771-6.571-5.973-12.075-11.883-15.467-11.797-6.827-28.011-2.368-34.795 9.323-3.392 5.888-4.288 12.757-2.539 19.328 1.771 6.571 5.973 12.075 11.883 15.467 3.883 2.24 8.256 3.413 12.693 3.413 9.088 0 17.557-4.885 22.101-12.736 3.392-5.909 4.288-12.757 2.539-19.328z"
         id="glyph386" />
      <glyph
         unicode=""
         glyph-name="ReleaseMan"
         d="M855.104 853.44h-682.667c-35.285 0-64-28.715-64-64v-474.539c0-31.381 20.565-66.773 47.829-82.325l309.867-176.512c13.013-7.445 29.931-11.52 47.616-11.52s34.603 4.075 47.616 11.499l309.867 176.555c27.264 15.552 47.829 50.944 47.829 82.304v474.539c0.043 35.285-28.651 64-63.957 64zM876.437 314.901c0-15.829-12.544-37.419-26.283-45.248l-309.867-176.555c-13.205-7.509-39.787-7.531-52.992 0.021l-309.888 176.512c-13.76 7.851-26.283 29.44-26.283 45.269v474.539c0 11.776 9.557 21.333 21.333 21.333h682.667c11.776 0 21.333-9.557 21.333-21.333v-474.539zM577.813 720.107l-64.043-78.315-64.064 78.315-223.915-121.664 72.107-88.107-42.069-99.904 46.315-22.016-1.045-60.075c-0.085-4.8 2.496-9.259 6.677-11.499l198.869-106.453c0.192-0.128 0.341-0.32 0.533-0.448 1.195-0.725 2.496-1.173 3.797-1.472 0 0 0.085 0 0.128-0.021 0.853-0.171 1.685-0.341 2.539-0.341 0.043 0 0.107 0.021 0.107 0.021l0.213-0.021c0.853 0 1.707 0.171 2.539 0.341 0.043 0.021 0.085 0.021 0.085 0.021 1.344 0.299 2.645 0.747 3.84 1.472 0.192 0.128 0.341 0.32 0.533 0.448l198.891 106.453c4.181 2.24 6.763 6.677 6.677 11.499l-1.045 60.075 46.272 21.995-42.091 99.904 72.107 88.107-223.957 121.685zM264.619 590.699l178.923 97.216 50.816-62.123-178.901-97.195-50.837 62.101zM288.299 423.061l30.528 72.469 178.88-82.987-30.699-74.432-178.709 84.949zM501.163 242.069l-174.976 93.675 0.725 40.896 153.067-72.768 21.184 51.349v-113.152zM513.792 433.173l-169.301 82.368 169.28 91.968 169.301-91.968-169.28-82.368zM526.443 242.069v113.024l21.12-51.221 153.109 72.768 0.725-40.896-174.955-93.675zM739.264 423.061l-178.709-84.949-30.699 74.432 178.88 82.987 30.528-72.469zM712.107 528.597l-178.901 97.195 50.795 62.123 178.923-97.216-50.816-62.101z"
         id="glyph388" />
      <glyph
         unicode=""
         glyph-name="DCS"
         d="M871.275 716.864l-309.867 176.533c-26.048 14.848-69.205 14.848-95.253 0l-309.867-176.533c-26.837-15.296-47.829-51.456-47.829-82.325v-373.077c0-30.869 20.992-67.029 47.829-82.325l309.867-176.533c13.013-7.424 29.931-11.52 47.616-11.52s34.603 4.096 47.616 11.52l309.867 176.533c26.837 15.296 47.829 51.456 47.829 82.325v373.077c0.021 30.869-20.971 67.029-47.808 82.325zM876.437 261.461c0-15.851-12.544-37.419-26.283-45.269l-309.867-176.533c-13.205-7.531-39.787-7.531-52.992 0l-309.888 176.533c-13.76 7.851-26.283 29.419-26.283 45.269v73.131c6.123-7.552 13.12-14.080 20.757-18.56l299.712-175.659c11.84-6.933 27.029-10.389 42.219-10.389s30.379 3.477 42.219 10.411l299.712 175.637c7.637 4.48 14.635 11.008 20.757 18.56v-73.131zM876.437 389.461c0-19.819-14.443-45.013-31.552-55.040l-299.712-175.637c-17.045-10.005-45.781-9.963-62.827 0l-299.691 175.659c-17.109 10.005-31.552 35.221-31.552 55.040v245.056c0 15.851 12.544 37.419 26.283 45.269l309.867 176.533c6.613 3.755 16.256 5.909 26.496 5.909s19.904-2.155 26.496-5.909l309.867-176.533c13.76-7.851 26.283-29.419 26.283-45.269v-245.077z"
         id="glyph390" />
      <glyph
         unicode=""
         glyph-name="DMS"
         d="M641.771 448c-23.552 0-42.667-19.136-42.667-42.667 0-23.552 19.115-42.667 42.667-42.667s42.667 19.115 42.667 42.667c0 23.531-19.115 42.667-42.667 42.667zM300.437 448c-23.552 0-42.667-19.136-42.667-42.667 0-23.552 19.115-42.667 42.667-42.667s42.667 19.115 42.667 42.667c0 23.531-19.115 42.667-42.667 42.667zM471.104 448c-23.552 0-42.667-19.136-42.667-42.667 0-23.552 19.115-42.667 42.667-42.667s42.667 19.115 42.667 42.667c0 23.531-19.115 42.667-42.667 42.667zM924.437 789.333h-714.667c-32.363 0-58.667-26.667-58.667-59.435v-4.565h21.333v4.565c0 21.013 16.768 38.101 37.333 38.101h714.667c20.587 0 37.333-17.088 37.333-38.101v-457.899c0-20.992-16.747-38.101-37.333-38.101h-5.333v-21.333h5.333c32.363 0 58.667 26.667 58.667 59.435v457.899c0 32.768-26.304 59.435-58.667 59.435zM833.771 704h-725.333c-35.285 0-64-28.715-64-64v-469.333c0-35.285 28.715-64 64-64h725.333c35.285 0 64 28.715 64 64v469.333c0 35.285-28.693 64-64 64zM855.104 170.667c0-11.755-9.557-21.333-21.333-21.333h-725.333c-11.776 0-21.333 9.579-21.333 21.333v469.333c0 11.755 9.557 21.333 21.333 21.333h725.333c11.776 0 21.333-9.579 21.333-21.333v-469.333z"
         id="glyph392" />
      <glyph
         unicode=""
         glyph-name="RDS"
         d="M871.339 432.768l-144.427 82.56v174.891c0 30.869-20.992 67.051-47.787 82.368l-117.909 67.413c-27.157 15.531-68.117 15.531-95.253 0l-117.909-67.413c-26.795-15.317-47.787-51.499-47.787-82.368v-174.805l-144-82.325c-26.795-15.317-47.787-51.499-47.787-82.368v-144.661c0-30.848 20.971-67.029 47.787-82.368l117.909-67.413c13.589-7.765 30.613-11.627 47.616-11.627s34.069 3.883 47.616 11.627l144.085 82.368 144.661-82.709c13.589-7.765 30.613-11.627 47.616-11.627s34.069 3.883 47.616 11.627l117.909 67.413c26.795 15.317 47.787 51.499 47.787 82.368v144.661c0.043 30.891-20.949 67.093-47.744 82.389zM342.933 690.219c0 15.851 12.544 37.461 26.283 45.333l117.909 67.413c13.824 7.915 39.083 7.915 52.907 0l117.909-67.413c13.76-7.872 26.283-29.461 26.283-45.333v-185.536l-139.115-79.531c-0.363-0.213-0.896-0.277-1.28-0.469-7.68 7.765-18.325 12.587-30.123 12.629-11.947 0.043-22.741-4.864-30.528-12.757-0.085 0.043-0.213 0.064-0.299 0.107-0.384 0.235-0.725 0.533-1.109 0.747l-138.923 79.403v185.408zM502.933 181.781l-154.667-88.427c-13.824-7.915-39.083-7.915-52.907 0l-117.909 67.413c-13.76 7.872-26.283 29.483-26.283 45.333v144.661c0 15.851 12.544 37.461 26.283 45.333l154.965 88.576-1.088 1.899 139.776-79.915c0.469-0.277 1.045-0.469 1.536-0.725-0.96-3.563-1.664-7.232-1.685-11.072-0.064-19.861 13.525-36.501 31.893-41.301 0-0.384 0.107-0.811 0.107-1.195v-170.581zM513.899 163.264l-0.811 1.408h1.621l-0.811-1.408zM876.459 205.76c0-15.851-12.544-37.461-26.283-45.333l-117.909-67.413c-13.824-7.915-39.083-7.915-52.907 0l-154.965 88.576-0.128-0.213v170.624c0 0.512 0.107 1.045 0.128 1.557 18.219 4.8 31.787 21.205 31.872 40.939 0.021 3.904-0.661 7.595-1.621 11.2 0.448 0.277 0.853 0.64 1.301 0.896l140.885 80.533-1.6-2.795 154.965-88.576c13.76-7.872 26.283-29.461 26.283-45.333v-144.661z"
         id="glyph394" />
      <glyph
         unicode=""
         glyph-name="MLS"
         d="M665.685 534.891c0.043 11.776-9.472 21.376-21.248 21.419-7.424 0.021-13.675-3.989-17.515-9.728l-117.12 41.728c0.64 2.901 1.024 5.909 1.024 9.003 0 1.621-0.299 3.157-0.448 4.736l41.365 9.835c5.483-9.579 15.701-16.149 27.541-16.192 17.664-0.064 32.064 14.208 32.128 31.872s-14.229 32.064-31.872 32.128c-17.664 0.064-32.043-14.208-32.128-31.872 0-2.005 0.213-3.968 0.555-5.867l-39.979-9.515c-6.059 16.085-21.461 27.627-39.659 27.712-23.552 0.107-42.752-18.944-42.837-42.496s18.944-42.752 42.496-42.837c16.683-0.064 31.040 9.557 38.101 23.488l117.248-41.749c-0.043-0.512-0.299-0.96-0.32-1.472-0.043-11.776 9.472-21.376 21.248-21.419s21.376 9.451 21.419 21.227zM716.267 548.736c0 101.397-50.517 161.771-146.027 174.592-15.744 2.219-24.768 2.112-39.637 1.92l-12.011-0.128c-61.184-0.363-116.757-29.205-147.84-76.16-22.763-26.603-37.269-59.371-42.005-94.827-0.277-1.003-0.427-2.048-0.427-3.093-0.64-5.675-0.171-13.312 0.171-17.429l-59.371-138.816c-1.387-3.307-1.067-7.083 0.917-10.069 1.963-2.987 5.312-4.8 8.896-4.8h46.485v-99.669c0-5.888 4.779-10.667 10.667-10.667h75.392v-88.256h21.333v98.923c0 5.888-4.779 10.667-10.667 10.667h-75.392v99.669c0 5.888-4.779 10.667-10.667 10.667h-40.981l54.080 126.443c0.704 1.685 0.981 3.52 0.789 5.333-0.427 3.883-0.896 11.541-0.448 15.573 0 0.085 0.021 0.235 0.021 0.427 0.085 0.363 0.149 0.704 0.192 1.067 4.011 31.829 16.875 61.227 37.995 86.016 27.925 42.069 76.885 67.349 130.965 67.669l12.16 0.128c14.848 0.192 22.293 0.299 36.459-1.728 84.672-11.371 127.595-62.997 127.595-153.451 0-50.389-5.995-100.331-36.651-206.443-0.277-0.917-0.405-1.856-0.427-2.816l-0.896-70.059 4.011-88.555 21.291 0.96-4.011 87.936 0.896 68.011c27.435 94.955 37.141 150.293 37.141 210.965zM871.275 716.864l-309.867 176.555c-26.048 14.848-69.205 14.848-95.253 0l-309.867-176.555c-26.837-15.296-47.829-51.456-47.829-82.304v-373.077c0-30.869 20.992-67.029 47.829-82.325l309.867-176.555c13.013-7.424 29.931-11.52 47.616-11.52s34.603 4.075 47.616 11.52l309.867 176.555c26.837 15.296 47.829 51.456 47.829 82.325v373.077c0.021 30.848-20.971 67.008-47.808 82.304zM876.437 261.461c0-15.851-12.544-37.419-26.283-45.269l-309.867-176.555c-13.163-7.509-39.829-7.509-52.992 0l-309.888 176.576c-13.76 7.851-26.283 29.419-26.283 45.269v373.077c0 15.829 12.544 37.397 26.283 45.248l309.867 176.555c6.592 3.755 16.256 5.909 26.496 5.909s19.925-2.155 26.496-5.909l309.867-176.555c13.76-7.851 26.283-29.419 26.283-45.248v-373.099z"
         id="glyph396" />
      <glyph
         unicode=""
         glyph-name="Compute"
         d="M365.333 255.339v0.555h-64.448c-11.648 0-21.12 9.579-21.12 21.333v170.667c0 11.755 9.472 21.333 21.12 21.333h64.448v0.128c5.589 0.32 10.069 4.864 10.069 10.539s-4.48 10.219-10.069 10.539v0.128h-64.448c-23.232 0-42.219-19.2-42.219-42.667v-170.667c0-23.467 19.008-42.667 42.219-42.667h61.653c0.725-0.149 1.408-0.448 2.197-0.448 5.888 0 10.667 4.779 10.667 10.667 0.021 5.696-4.459 10.24-10.069 10.56zM642.091 373.461h-256c-5.888 0-10.667-4.779-10.667-10.667s4.779-10.667 10.667-10.667h256c5.888 0 10.667 4.779 10.667 10.667s-4.779 10.667-10.667 10.667zM744.533 611.627c-33.131 97.109-123.797 166.933-230.741 166.933s-197.611-69.845-230.741-166.933c-122.197-13.696-217.259-118.741-217.259-246.4 0-136.96 109.397-248 244.373-248h407.275c134.955 0 244.352 111.040 244.352 248 0 127.659-95.083 232.704-217.259 246.4zM717.419 159.893h-407.275c-111.211 0-201.707 92.117-201.707 205.333 0 104.832 77.099 192.533 179.349 203.989 16.405 1.835 30.293 12.992 35.627 28.629 28.16 82.581 104.661 138.048 190.357 138.048s162.197-55.488 190.357-138.048c5.333-15.637 19.221-26.773 35.627-28.629 102.251-11.456 179.349-99.157 179.349-203.989 0.021-113.216-90.453-205.333-201.685-205.333zM727.851 490.56h-64.427c-5.888-0.021-10.645-4.779-10.645-10.667s4.757-10.645 10.645-10.667v0h64.427c11.648 0 21.12-9.579 21.12-21.333v-170.667c0-11.755-9.472-21.333-21.12-21.333h-64.427v-0.448c-5.888-0.021-10.645-4.779-10.645-10.667s4.779-10.667 10.667-10.667c0.789 0 1.472 0.277 2.197 0.448h62.208c23.232 0 42.219 19.2 42.219 42.667v170.667c0.021 23.467-18.987 42.667-42.219 42.667z"
         id="glyph398" />
      <glyph
         unicode=""
         glyph-name="IMS"
         d="M773.888 760.555c-83.755 86.080-167.211 92.779-190.784 92.779h-330.667c-35.285 0-64-28.715-64-64v-682.667c0-35.285 28.715-64 64-64h469.333c2.773 0 5.419 0.469 8.107 0.811l0.128-0.427 2.411 0.683c5.056 0.853 9.941 2.133 14.507 4.096l75.2 21.227c26.283 11.691 49.003 21.781 49.003 53.611v434.965c-0.021 13.483-18.133 121.621-97.237 202.923zM743.104 106.667c0-11.755-9.579-21.333-21.333-21.333h-469.333c-11.755 0-21.333 9.579-21.333 21.333v682.667c0 11.755 9.579 21.333 21.333 21.333h234.667c20.437 0 92.992-5.824 168.043-80.875 68.565-68.565 87.488-163.413 87.957-175.125v-448zM849.771 122.667c0-16.555-8.875-21.909-34.88-33.579l-35.627-10.005c4.053 8.384 6.507 17.664 6.507 27.584v448c0 13.76-18.731 123.563-100.459 205.291-36.075 36.096-71.808 58.325-103.381 72.043h1.173c21.461 0 97.557-6.229 175.488-86.315 73.067-75.115 91.179-176.299 91.179-188.053v-434.965zM558.699 490.155c-11.051 31.317-41.259 53.845-76.907 53.845s-65.877-22.528-76.907-53.845c-40.725-4.416-72.427-38.293-72.427-79.488 0-44.181 36.459-80 81.451-80h135.765c44.992 0 81.451 35.819 81.451 80-0.021 41.173-31.701 75.051-72.427 79.488zM549.653 352h-135.765c-33.152 0-60.117 26.325-60.117 58.667 0 29.909 22.955 54.976 53.376 58.283 8.171 0.896 15.083 6.379 17.813 14.123 8.363 23.701 31.168 39.616 56.789 39.616s48.448-15.915 56.789-39.616c2.731-7.744 9.664-13.227 17.813-14.123 30.443-3.307 53.397-28.352 53.397-58.283 0.021-32.341-26.944-58.667-60.096-58.667z"
         id="glyph400" />
      <glyph
         unicode=""
         glyph-name="CLoud-Pipeline"
         d="M571.221 587.093c8.491 6.379 17.771 11.648 27.605 15.637l8.213 3.328-6.763 16.213-8.213-3.328c-11.264-4.587-21.909-10.603-31.616-17.899l-7.083-5.312 10.773-13.952 7.083 5.312zM629.589 610.795c10.517 1.323 21.44 1.323 31.872-0.021l8.811-1.152 2.304 17.387-8.832 1.131c-11.947 1.515-24.405 1.557-36.437 0.021l-8.811-1.109 2.283-17.387 8.811 1.131zM285.056 416.448c-3.776 4.8-7.211 9.899-10.197 15.125l-4.331 7.659-15.531-8.555 4.352-7.659c3.413-6.016 7.339-11.84 11.648-17.344l5.44-6.933 14.059 10.752-5.44 6.955zM719.787 587.008l7.061-5.333 10.795 13.931-7.061 5.333c-9.707 7.317-20.331 13.355-31.573 17.941l-8.213 3.349-6.784-16.213 8.213-3.349c9.813-4.011 19.072-9.28 27.563-15.659zM742.4 564.864c3.776-4.8 7.211-9.899 10.197-15.125l4.331-7.659 15.531 8.555-4.352 7.659c-3.413 6.016-7.339 11.84-11.648 17.344l-5.44 6.933-14.059-10.752 5.44-6.955zM538.304 549.717c2.965 5.227 6.379 10.304 10.176 15.147l5.44 6.933-14.059 10.752-5.44-6.933c-4.331-5.504-8.256-11.349-11.627-17.323l-4.352-7.659 15.531-8.555 4.331 7.637zM777.173 525.397c-19.435 0-35.221-15.595-35.221-34.752 0-14.357 8.896-26.731 21.525-32.021-14.507-52.011-62.613-89.131-118.016-89.131-55.36 0-103.531 37.12-118.037 89.109 12.651 5.269 21.547 17.643 21.547 32.021 0 17.771-13.653 32.299-31.125 34.347-15.787 60.757-71.531 104.32-135.808 104.32-64.213 0-120.021-43.584-135.808-104.32-17.472-2.027-31.125-16.576-31.125-34.347 0-19.157 15.808-34.752 35.221-34.752 19.435 0 35.243 15.595 35.243 34.752 0 14.379-8.896 26.731-21.547 32.021 14.507 51.989 62.677 89.109 118.037 89.109 55.445 0 103.552-37.12 118.037-89.131-12.651-5.269-21.547-17.643-21.547-32.021 0-17.771 13.653-32.299 31.125-34.347 15.787-60.736 71.595-104.32 135.808-104.32 64.256 0 120 43.563 135.808 104.32 17.472 2.027 31.147 16.555 31.147 34.347-0.043 19.2-15.851 34.795-35.264 34.795zM267.755 490.667c0-9.493-7.829-17.216-17.451-17.216s-17.451 7.723-17.451 17.216c0 9.493 7.829 17.216 17.451 17.216 9.621-0.021 17.451-7.744 17.451-17.216zM513.728 473.451c-9.621 0-17.451 7.723-17.451 17.216s7.829 17.216 17.451 17.216 17.451-7.723 17.451-17.216c0-9.493-7.829-17.216-17.451-17.216zM777.173 473.451c-9.621 0-17.451 7.723-17.451 17.216s7.829 17.216 17.451 17.216c9.621 0 17.451-7.723 17.451-17.216s-7.851-17.216-17.451-17.216zM307.669 394.304l-7.061 5.333-10.795-13.931 7.061-5.333c9.707-7.317 20.331-13.355 31.573-17.941l8.235-3.349 6.784 16.213-8.213 3.349c-9.835 4.011-19.093 9.259-27.584 15.659zM855.104 852.459h-682.667c-35.285 0-64-28.715-64-64v-474.539c0-30.869 21.013-67.051 47.851-82.325l309.845-176.533c13.035-7.424 29.952-11.499 47.637-11.499s34.603 4.075 47.637 11.499l309.845 176.533c26.837 15.296 47.851 51.456 47.851 82.325v474.539c0 35.285-28.693 64-64 64zM876.437 313.92c0-15.829-12.544-37.419-26.304-45.248l-309.845-176.533c-13.205-7.552-39.808-7.552-53.013 0l-309.867 176.512c-13.76 7.829-26.304 29.419-26.304 45.248v474.56c0 11.776 9.579 21.333 21.333 21.333h682.667c11.755 0 21.333-9.557 21.333-21.333v-474.539zM489.152 431.595c-2.965-5.248-6.4-10.325-10.197-15.125l-5.44-6.933 14.037-10.752 5.461 6.933c4.331 5.483 8.235 11.328 11.648 17.344l4.352 7.659-15.531 8.555-4.331-7.68zM456.235 394.219c-8.491-6.379-17.771-11.648-27.605-15.637l-8.213-3.328 6.763-16.213 8.213 3.328c11.264 4.587 21.909 10.603 31.616 17.899l7.083 5.312-10.773 13.952-7.083-5.312zM397.867 370.517c-10.517-1.323-21.44-1.301-31.872 0.021l-8.811 1.152-2.304-17.387 8.832-1.131c6.016-0.768 12.16-1.173 18.304-1.173 6.059 0 12.16 0.384 18.133 1.152l8.811 1.109-2.261 17.387-8.832-1.131z"
         id="glyph402" />
      <glyph
         unicode=""
         glyph-name="BMS"
         d="M567.104 330.453h-250.667c-5.888 0-10.667-4.779-10.667-10.667s4.779-10.667 10.667-10.667h250.667c5.888 0 10.667 4.779 10.667 10.667s-4.757 10.667-10.667 10.667zM567.104 394.453h-250.667c-5.888 0-10.667-4.779-10.667-10.667s4.779-10.667 10.667-10.667h250.667c5.888 0 10.667 4.779 10.667 10.667s-4.757 10.667-10.667 10.667zM684.437 490.453h-341.333c-76.459 0-138.667-62.208-138.667-138.667s62.208-138.667 138.667-138.667h341.333c76.459 0 138.667 62.208 138.667 138.667s-62.208 138.667-138.667 138.667zM684.437 234.453h-341.333c-64.704 0-117.333 52.629-117.333 117.333s52.629 117.333 117.333 117.333h341.333c64.704 0 117.333-52.629 117.333-117.333s-52.629-117.333-117.333-117.333zM755.52 616.789c-34.709 100.245-129.685 172.331-241.728 172.331s-207.019-72.085-241.728-172.331c-128-14.144-227.605-122.56-227.605-254.336 0-141.376 114.624-256 256-256h426.667c141.376 0 256 114.624 256 256-0.021 131.776-99.605 240.213-227.605 254.336zM727.104 149.12h-426.667c-117.632 0-213.333 95.701-213.333 213.333 0 108.885 81.515 200 189.632 211.925 16.363 1.813 30.229 12.885 35.627 28.437 29.739 85.909 110.677 143.616 201.408 143.616s171.669-57.707 201.408-143.616c5.397-15.573 19.264-26.645 35.627-28.437 108.096-11.947 189.611-103.061 189.611-211.925 0.021-117.632-95.659-213.333-213.312-213.333zM684.437 405.12c-29.397 0-53.333-23.936-53.333-53.333s23.936-53.333 53.333-53.333 53.333 23.936 53.333 53.333-23.915 53.333-53.333 53.333zM684.437 319.787c-17.643 0-32 14.357-32 32s14.357 32 32 32 32-14.357 32-32-14.336-32-32-32z"
         id="glyph404" />
      <glyph
         unicode=""
         glyph-name="KMS"
         d="M889.301 728.597c-140.395 27.477-272.469 100.288-335.787 156.288-10.923 9.664-27.307 11.115-36.096 11.115-7.573 0-26.539-1.173-38.848-11.947-63.659-55.701-195.925-128.128-335.829-155.499-22.613-4.395-36.416-45.099-33.899-64.021 1.877-14.229 3.456-30.315 5.163-47.872 9.6-97.984 24.085-246.080 121.088-378.88 65.984-90.368 170.048-184.085 258.923-233.195 5.504-3.029 13.44-4.587 23.616-4.587 11.776 0 17.323 2.304 20.459 4.032 90.112 49.643 194.219 143.637 259.051 233.877 89.109 124.032 105.515 278.741 116.352 381.12 1.771 16.768 3.392 32.064 5.163 45.525 2.24 17.003-5.035 59.264-29.355 64.043zM876.373 670.144c-1.813-13.76-3.499-29.44-5.312-46.613-10.368-97.899-26.048-245.845-108.565-360.725-59.947-83.456-159.381-173.568-242.645-220.096-2.517-0.213-5.611 0.043-7.019 0.235-82.283 45.973-182.059 136.149-243.285 220.011-90.133 123.413-103.403 258.944-113.109 357.888-1.771 18.069-3.392 34.624-5.333 49.259-0.363 3.669 2.965 12.693 5.952 17.835 146.091 29.888 280.469 103.531 348.907 163.499 1.067 0.597 5.376 1.899 11.456 1.899 5.269 0 8.384-0.96 7.851-0.405 68.501-60.608 201.984-134.379 347.904-164.608 1.941-5.333 3.776-13.696 3.2-18.176zM513.771 672c-70.592 0-128-57.408-128-128 0-66.987 51.733-122.005 117.333-127.467v-208h21.333v36.8h58.667v19.328h-58.667v39.339h58.667v19.328h-58.667v93.205c65.6 5.44 117.333 60.48 117.333 127.467 0 70.592-57.408 128-128 128zM513.771 437.333c-58.816 0-106.667 47.851-106.667 106.667s47.851 106.667 106.667 106.667 106.667-47.851 106.667-106.667c0-58.816-47.851-106.667-106.667-106.667z"
         id="glyph406" />
      <glyph
         unicode=""
         glyph-name="CodeHub"
         d="M852.437 853.333h-682.667c-35.285 0-64-28.715-64-64v-474.539c0-30.869 21.013-67.051 47.851-82.304l309.845-176.555c13.013-7.424 29.931-11.52 47.616-11.52s34.603 4.075 47.637 11.52l309.845 176.555c26.837 15.296 47.829 51.456 47.829 82.304v474.539c0.043 35.285-28.651 64-63.957 64zM873.771 314.795c0-15.829-12.544-37.397-26.283-45.248l-309.845-176.533c-13.205-7.531-39.851-7.509-53.013 0l-309.867 176.533c-13.781 7.829-26.304 29.397-26.304 45.248v387.947c5.739 7.168 15.531 11.925 26.667 11.925h682.667c5.845 0 11.264-1.408 16-3.691v-396.181zM873.771 733.547c-5.077 1.451-10.389 2.453-16 2.453h-682.667c-9.771 0-18.795-2.539-26.667-6.656v59.989c0 11.755 9.557 21.333 21.333 21.333h682.667c11.776 0 21.333-9.579 21.333-21.333v-55.787zM623.104 416h-98.667v103.317c0 5.888-4.779 10.667-10.667 10.667s-10.667-4.779-10.667-10.667v-103.317h-93.333c-5.888 0-10.667-4.779-10.667-10.667s4.779-10.667 10.667-10.667h93.333v-174.016c0-5.888 4.779-10.667 10.667-10.667s10.667 4.779 10.667 10.667v174.016h98.667c5.888 0 10.667 4.779 10.667 10.667s-4.757 10.667-10.667 10.667zM745.408 539.093c-86.912 16.981-168.768 62.016-208.021 96.661-6.101 5.419-15.531 6.229-20.608 6.229-4.373 0-15.339-0.64-22.293-6.72-39.467-34.453-121.365-79.253-208.021-96.171-11.499-2.219-20.459-25.109-18.944-36.629 1.237-9.259 2.219-20.139 3.371-32.299 6.016-64.917 15.147-163.072 73.963-243.413 33.6-45.909 85.525-87.851 158.699-128.213 3.029-1.664 7.509-2.517 13.355-2.517 6.677 0 9.707 1.259 11.413 2.197 73.685 40.512 125.632 82.581 158.763 128.619 53.845 74.859 64.171 176.896 70.976 244.416 1.195 11.797 2.24 22.357 3.435 31.232 1.28 9.451-2.816 34.027-16.085 36.608zM736.875 473.344c-6.592-65.259-16.533-163.861-67.093-234.091-31.253-43.413-80.875-83.435-150.187-121.771-0.235-0.043-1.152-0.171-2.667-0.171-2.197 0-3.669 0.235-3.072-0.128-70.4 38.848-120.064 78.784-151.787 122.133-55.317 75.584-64.107 170.197-69.931 232.789-1.152 12.437-2.197 23.616-3.435 33.109-0.427 3.093 2.411 10.219 4.565 13.44 89.963 18.155 172.779 63.403 215.147 100.416 0.704 0.469 3.797 1.536 8.384 1.536 3.733 0 6.165-0.725 6.485-0.875 42.197-37.227 124.565-82.581 214.507-100.885 1.429-3.349 3.115-9.856 2.603-13.632-1.216-9.024-2.304-19.797-3.52-31.872z"
         id="glyph408" />
      <glyph
         unicode=""
         glyph-name="MaaS"
         d="M521.728 656.085l-1.92 21.248-155.307-13.973 331.477-331.499 15.083 15.083-299.221 299.243 109.888 9.899zM316.501 549.056l299.221-299.243-109.888-9.899 1.92-21.248 155.307 13.973-331.477 331.499-15.083-15.083zM850.261 608h-176.469v176.491c-0.021 37.952-30.912 68.843-68.864 68.843h-427.627c-37.973 0-68.864-30.891-68.864-68.843v-427.627c0-37.973 30.891-68.864 68.864-68.864h176.469v-176.469c0-37.973 30.891-68.864 68.864-68.864h427.627c37.952 0 68.864 30.891 68.864 68.864v427.627c-0.021 37.952-30.912 68.843-68.864 68.843zM876.437 111.509c0-14.443-11.755-26.197-26.197-26.197h-427.605c-14.443 0-26.197 11.755-26.197 26.197v219.157h-219.136c-14.443 0-26.197 11.755-26.197 26.197v427.627c0 14.443 11.755 26.176 26.197 26.176h427.627c14.443 0 26.197-11.733 26.197-26.176v-219.157h219.136c14.443 0 26.197-11.733 26.197-26.176v-427.648z"
         id="glyph410" />
      <glyph
         unicode=""
         glyph-name="PTS"
         d="M748.437 391.019h-469.333c-5.888 0-10.667-4.779-10.667-10.667s4.779-10.667 10.667-10.667h469.333c5.888 0 10.667 4.779 10.667 10.667s-4.757 10.667-10.667 10.667zM889.323 756.928c-140.416 27.499-272.469 100.309-335.808 156.352-10.923 9.643-27.307 11.093-36.075 11.093-7.573 0-26.539-1.173-38.869-11.925-63.659-55.701-195.925-128.149-335.787-155.499-22.635-4.373-36.437-45.077-33.941-64.043 1.877-14.251 3.456-30.315 5.163-47.851 9.6-98.005 24.085-246.080 121.088-378.901 66.005-90.368 170.048-184.085 258.923-233.195 5.525-3.072 13.483-4.608 23.659-4.608 11.755 0 17.301 2.304 20.437 4.032 90.112 49.664 194.219 143.637 259.051 233.899 89.109 124.011 105.515 278.72 116.352 381.099 1.771 16.768 3.392 32.085 5.163 45.525 2.219 17.003-5.056 59.285-29.355 64.021zM876.373 698.496c-1.813-13.76-3.499-29.44-5.312-46.613-10.368-97.899-26.048-245.845-108.565-360.725-59.947-83.413-159.381-173.547-242.645-220.096-2.539-0.149-5.589 0.064-7.019 0.256-82.283 45.952-182.037 136.128-243.285 219.989-90.133 123.392-103.403 258.923-113.109 357.888-1.771 18.069-3.392 34.624-5.333 49.28-0.363 3.669 2.965 12.693 5.952 17.813 146.112 29.888 280.448 103.552 348.885 163.52 1.045 0.576 5.376 1.899 11.456 1.899 5.227 0 8.384-0.96 7.829-0.405 68.501-60.629 201.984-134.379 347.925-164.629 1.963-5.355 3.797-13.717 3.221-18.176zM513.771 689.685c-132.864 0-242.923-109.973-245.333-245.141l-0.192-10.859h491.051l-0.192 10.859c-2.411 135.168-112.448 245.141-245.333 245.141zM498.859 461.483c6.635 10.176 23.211 10.176 29.824 0h-29.824zM552.853 455.019c-1.216 10.645-6.357 19.989-13.952 26.539 0.085 0.128 0.235 0.171 0.32 0.299l60.757 89.664c3.307 4.885 2.027 11.499-2.859 14.805-4.864 3.243-11.499 2.027-14.805-2.859l-60.757-89.664c-0.683-1.024-1.067-2.133-1.365-3.264-2.112 0.363-4.224 0.661-6.421 0.661-20.096 0-36.757-15.936-39.083-36.203h-184.469c1.685 26.048 7.957 50.816 17.6 73.792l19.947-11.968c1.728-1.045 3.605-1.515 5.483-1.515 3.627 0 7.147 1.856 9.152 5.184 3.029 5.035 1.387 11.584-3.648 14.635l-21.717 13.035c16.491 30.869 39.723 57.429 67.669 77.717l7.36-11.051c2.048-3.093 5.44-4.757 8.896-4.757 2.027 0 4.075 0.576 5.909 1.792 4.885 3.264 6.229 9.899 2.965 14.784l-7.275 10.901c29.973 17.685 64.171 28.437 100.544 30.229v-22.229c0-5.888 4.779-10.667 10.667-10.667s10.667 4.779 10.667 10.667v22.229c37.717-1.856 73.109-13.312 103.851-32.171l-6.144-9.493c-3.2-4.949-1.771-11.563 3.157-14.741 1.792-1.173 3.797-1.707 5.781-1.707 3.499 0 6.933 1.728 8.96 4.885l5.867 9.088c26.581-19.989 48.683-45.739 64.576-75.456l-21.717-13.035c-5.056-3.051-6.677-9.579-3.648-14.635 2.005-3.328 5.525-5.184 9.152-5.184 1.856 0 3.755 0.469 5.483 1.515l19.947 11.968c9.664-22.997 15.915-47.765 17.6-73.792h-184.448z"
         id="glyph412" />
      <glyph
         unicode=""
         glyph-name="DTA"
         d="M364.437 533.333h273.643l-64.619-67.264c-4.075-4.245-3.947-11.008 0.32-15.083 2.069-2.005 4.736-2.987 7.381-2.987 2.795 0 5.611 1.109 7.701 3.264l81.941 85.333c3.968 4.139 3.968 10.645 0 14.784l-81.941 85.333c-4.096 4.224-10.837 4.395-15.083 0.299-4.245-4.075-4.395-10.837-0.32-15.083l64.619-67.264h-273.643c-5.888 0-10.667-4.779-10.667-10.667s4.779-10.667 10.667-10.667zM311.104 554.688h-42.667c-5.888 0-10.667-4.779-10.667-10.667s4.779-10.667 10.667-10.667h42.667c5.888 0 10.667 4.779 10.667 10.667s-4.757 10.667-10.667 10.667zM871.275 716.864l-309.867 176.555c-26.069 14.827-69.205 14.827-95.275 0l-309.824-176.555c-26.837-15.275-47.851-51.435-47.851-82.325v-373.077c0-30.869 21.013-67.051 47.851-82.325l309.867-176.533c13.035-7.424 29.952-11.499 47.616-11.499s34.603 4.075 47.637 11.499l309.845 176.533c26.837 15.296 47.851 51.456 47.851 82.325v373.077c-0.021 30.891-21.035 67.072-47.851 82.325zM876.437 261.461c0-15.829-12.544-37.419-26.304-45.248l-309.845-176.533c-13.205-7.509-39.851-7.509-53.035 0l-309.845 176.533c-13.76 7.829-26.304 29.419-26.304 45.248v373.077c0 15.851 12.523 37.419 26.304 45.248l309.867 176.533c6.613 3.776 16.256 5.931 26.517 5.931s19.904-2.176 26.517-5.931l309.867-176.533c13.76-7.829 26.283-29.397 26.283-45.248v-373.077zM684.864 444.736c-4.096 4.203-10.837 4.395-15.083 0.299-4.245-4.075-4.395-10.837-0.32-15.083l64.619-67.285h-273.643c-5.888 0-10.667-4.779-10.667-10.667s4.779-10.667 10.667-10.667h273.643l-64.619-67.264c-4.075-4.245-3.947-11.008 0.32-15.083 2.069-2.005 4.736-2.987 7.381-2.987 2.795 0 5.611 1.109 7.701 3.264l81.941 85.333c3.968 4.139 3.968 10.645 0 14.784l-81.941 85.355zM407.104 362.688h-42.667c-5.888 0-10.667-4.779-10.667-10.667s4.779-10.667 10.667-10.667h42.667c5.888 0 10.667 4.779 10.667 10.667s-4.757 10.667-10.667 10.667z"
         id="glyph414" />
      <glyph
         unicode=""
         glyph-name="DIS"
         d="M410.048 448.043c0 8.491-3.307 16.491-9.344 22.507l-105.707 105.728c-4.16 4.16-10.923 4.16-15.083 0s-4.16-10.923 0-15.083l105.707-105.728c1.984-1.984 3.093-4.608 3.093-7.403s-1.109-5.419-3.093-7.424l-105.707-105.728c-4.16-4.16-4.16-10.923 0-15.083 2.091-2.091 4.821-3.115 7.552-3.115s5.461 1.045 7.552 3.115l105.707 105.707c6.016 5.995 9.323 13.995 9.323 22.507zM491.264 561.045c5.995-6.016 13.973-9.323 22.507-9.323 8.491 0 16.469 3.307 22.507 9.323l105.707 105.728c4.16 4.16 4.16 10.923 0 15.083s-10.923 4.16-15.083 0l-105.707-105.707c-4.011-3.989-10.901-3.947-14.827 0l-105.728 105.728c-4.16 4.16-10.923 4.16-15.083 0s-4.16-10.923 0-15.083l105.707-105.749zM871.275 716.864l-309.867 176.533c-26.048 14.848-69.205 14.848-95.253 0l-309.867-176.533c-26.837-15.296-47.829-51.456-47.829-82.325v-373.077c0-30.869 20.992-67.029 47.829-82.325l309.867-176.533c13.013-7.424 29.931-11.52 47.616-11.52s34.603 4.096 47.616 11.52l309.867 176.533c26.837 15.296 47.829 51.456 47.829 82.325v373.077c0.021 30.869-20.971 67.029-47.808 82.325zM876.437 261.461c0-15.851-12.544-37.419-26.283-45.269l-309.867-176.533c-13.205-7.531-39.787-7.531-52.992 0l-309.888 176.533c-13.76 7.851-26.283 29.419-26.283 45.269v373.077c0 15.851 12.544 37.419 26.283 45.269l309.867 176.533c6.613 3.755 16.256 5.909 26.496 5.909s19.904-2.155 26.496-5.909l309.867-176.533c13.76-7.851 26.283-29.419 26.283-45.269v-373.077zM536.256 334.997c-12.459 12.395-32.64 12.395-45.013 0l-105.707-105.707c-4.16-4.16-4.16-10.923 0-15.083s10.923-4.16 15.083 0l105.707 105.707c4.053 4.096 10.752 4.117 14.848 0l105.707-105.707c2.091-2.091 4.821-3.115 7.552-3.115s5.461 1.045 7.552 3.115c4.16 4.16 4.16 10.923 0 15.083l-105.728 105.707zM747.584 561.131c4.16 4.16 4.16 10.923 0 15.083s-10.923 4.16-15.083 0l-105.728-105.728c-12.395-12.416-12.395-32.597 0-44.992l105.728-105.728c2.091-2.091 4.821-3.115 7.552-3.115s5.461 1.045 7.552 3.115c4.16 4.16 4.16 10.923 0 15.083l-105.728 105.728c-4.075 4.075-4.075 10.752 0 14.827l105.707 105.728z"
         id="glyph416" />
      <glyph
         unicode=""
         glyph-name="DES"
         d="M755.52 595.669c-34.709 100.245-129.707 172.331-241.749 172.331s-207.019-72.085-241.728-172.331c-128-14.144-227.605-122.56-227.605-254.336 0-141.376 114.624-256 256-256h426.688c141.376 0.021 255.979 114.624 255.979 256 0 131.776-99.584 240.192-227.584 254.336zM727.104 128h-426.667c-83.072 0-155.029 47.851-190.251 117.333h363.584c1.365 0 2.752 0.277 4.032 0.811 0.832 0.341 1.493 0.917 2.219 1.429 0.384 0.277 0.832 0.427 1.195 0.768l0.107 0.107c0 0 0 0 0.021 0.021l187.115 182.251v-108.053c0-5.888 4.779-10.667 10.667-10.667s10.667 4.779 10.667 10.667v133.333c0 0.448-0.192 0.811-0.256 1.237-0.107 0.939-0.192 1.877-0.555 2.773s-0.96 1.643-1.557 2.411c-0.256 0.32-0.363 0.725-0.661 1.024l-0.043 0.043c-0.981 0.981-2.133 1.792-3.413 2.347-1.323 0.555-2.709 0.832-4.117 0.832h-128.043c-5.888 0-10.667-4.779-10.667-10.667s4.779-10.667 10.667-10.667h101.76l-183.467-178.667h-368.576c-8.747 23.275-13.76 48.363-13.76 74.667 0 18.411 2.496 36.245 6.891 53.333h318.443c5.888 0 10.667 4.779 10.667 10.667s-4.779 10.667-10.667 10.667h-311.808c27.392 73.451 94.037 128.192 176.107 137.259 16.384 1.813 30.251 12.885 35.627 28.437 29.739 85.931 110.677 143.637 201.408 143.637s171.669-57.707 201.408-143.616c5.397-15.573 19.264-26.645 35.627-28.437 108.096-11.947 189.611-103.061 189.611-211.925 0.021-117.653-95.68-213.355-213.312-213.355z"
         id="glyph418" />
      <glyph
         unicode=""
         glyph-name="DPS"
         d="M333.312 504.597c2.091-2.176 4.885-3.264 7.68-3.264 2.667 0 5.312 0.981 7.403 2.987 4.245 4.075 4.373 10.837 0.299 15.083l-33.877 35.264h337.643c41.173 0 74.667-33.493 74.667-74.667s-33.493-74.667-74.667-74.667h-256c-5.888 0-10.667-4.779-10.667-10.667s4.779-10.667 10.667-10.667h256c52.928 0 96 43.072 96 96s-43.072 96-96 96h-337.643l33.856 35.264c4.075 4.245 3.968 11.008-0.299 15.083s-11.008 3.947-15.083-0.299l-51.2-53.333c-3.989-4.139-3.989-10.645 0-14.784l51.221-53.333zM871.275 716.864l-309.867 176.555c-26.048 14.827-69.205 14.827-95.253 0l-309.867-176.576c-26.837-15.296-47.829-51.456-47.829-82.304v-373.077c0-30.891 21.013-67.051 47.829-82.325l309.867-176.512c13.013-7.445 29.931-11.541 47.616-11.541s34.603 4.096 47.616 11.52l309.867 176.533c26.816 15.296 47.829 51.435 47.829 82.325v373.077c0.021 30.848-20.971 67.029-47.808 82.325zM876.437 261.461c0-15.851-12.523-37.419-26.283-45.248l-309.867-176.555c-13.205-7.509-39.787-7.531-52.992 0.021l-309.888 176.533c-13.781 7.829-26.283 29.397-26.283 45.248v373.077c0 15.829 12.544 37.419 26.283 45.248l309.867 176.533c6.592 3.755 16.256 5.909 26.496 5.909s19.925-2.176 26.496-5.909l309.867-176.512c13.76-7.851 26.283-29.44 26.283-45.269v-373.077zM694.251 370.069c-4.053 4.224-10.816 4.373-15.083 0.299-4.245-4.075-4.373-10.837-0.299-15.083l33.877-35.285h-337.643c-41.173 0-74.667 33.493-74.667 74.667s33.493 74.667 74.667 74.667h256c5.888 0 10.667 4.779 10.667 10.667s-4.779 10.667-10.667 10.667h-256c-52.928 0-96-43.072-96-96s43.072-96 96-96h337.643l-33.856-35.264c-4.075-4.245-3.968-11.008 0.299-15.083 2.091-2.005 4.736-2.987 7.403-2.987 2.795 0 5.611 1.109 7.68 3.264l51.2 53.333c3.989 4.139 3.989 10.645 0 14.784l-51.221 53.355z"
         id="glyph420" />
      <glyph
         unicode=""
         glyph-name="ECPC"
         d="M612.629 320.405c-20.672 11.115-19.648 2.539-61.824-22.187-19.712-11.456-46.443 7.467-46.443 7.467s-21.205 12.779-36.288 27.264c-15.019 14.464-28.544 34.709-28.544 34.709s-19.776 25.6-7.701 44.437c25.856 40.341 34.731 39.381 23.168 59.243-40.448 68.992-67.243 66.176-73.856 64.405-26.005-6.912-47.019-52.096-34.155-101.419 12.885-49.6 40.235-99.221 81.621-139.115 41.749-39.637 93.589-65.792 145.408-78.123 51.541-12.352 98.795 7.808 105.984 32.661 1.835 6.293 4.843 31.979-67.371 70.656zM600.491 386.965c0.683-0.149 1.365-0.235 2.069-0.235 4.011 0 7.659 2.624 8.64 6.528 6.443 25.92-1.387 52.565-20.971 71.275-19.584 18.752-47.445 26.24-74.475 20.053-4.8-1.088-7.744-5.675-6.592-10.24 1.131-4.544 5.995-7.381 10.688-6.293 21.013 4.779 42.603-1.024 57.792-15.552s21.248-35.2 16.235-55.296c-1.088-4.565 1.856-9.152 6.613-10.24zM514.347 551.616c-4.8-1.003-7.851-5.504-6.805-10.091 1.024-4.587 5.717-7.531 10.539-6.528 41.045 8.491 83.179-3.371 112.725-31.637 29.568-28.288 41.92-68.608 33.067-107.861-1.024-4.587 2.027-9.109 6.805-10.091 0.64-0.128 1.259-0.192 1.877-0.192 4.096 0 7.787 2.731 8.683 6.72 10.112 44.907-4.032 91.072-37.888 123.456-33.813 32.363-82.005 45.888-129.003 36.224zM755.52 617.024c-34.688 100.245-129.685 172.331-241.728 172.331s-207.019-72.085-241.728-172.331c-128-14.144-227.605-122.56-227.605-254.336 0-141.376 114.624-256 256-256h426.667c141.376 0 256 114.624 256 256-0.021 131.776-99.605 240.192-227.605 254.336zM727.125 149.355h-426.667c-117.632 0-213.333 95.701-213.333 213.333 0 108.885 81.515 200 189.611 211.925 16.384 1.813 30.251 12.885 35.627 28.459 29.739 85.909 110.677 143.616 201.408 143.616s171.669-57.707 201.408-143.616c5.397-15.573 19.264-26.645 35.627-28.459 108.096-11.947 189.611-103.061 189.611-211.925 0.021-117.632-95.659-213.333-213.291-213.333z"
         id="glyph422" />
      <glyph
         unicode=""
         glyph-name="IAM"
         d="M410.56 369.344c-8.896 2.624-20.736 6.101-25.003 8.683v10.859c22.699 19.392 35.627 47.253 35.627 77.248v72.576c0 55.829-44.608 101.269-99.413 101.269s-99.413-45.44-99.413-101.269v-72.576c0-29.995 12.928-57.877 35.627-77.248v-10.859c-4.288-2.603-16.128-6.080-25.003-8.683-32.619-9.579-81.877-24.085-81.877-66.517v-36.309c0-5.781 4.629-10.517 10.347-10.517h320.64c5.717 0 10.347 4.736 10.347 10.539v36.309c0 42.411-49.28 56.896-81.877 66.496zM471.765 277.056h-299.968v25.771c0 26.581 38.677 37.952 66.923 46.272 23.189 6.827 39.957 11.776 39.957 26.325v18.56c0 3.285-1.515 6.443-4.096 8.384-20.032 15.445-31.531 38.72-31.531 63.787v72.576c0 44.224 35.307 80.192 78.72 80.192s78.72-35.968 78.72-80.192v-72.576c0-25.088-11.499-48.341-31.552-63.787-2.581-1.941-4.075-5.077-4.075-8.384v-18.56c0-14.549 16.768-19.499 39.957-26.325 28.245-8.32 66.923-19.669 66.923-46.272v-25.771zM918.592 789.333h-809.643c-35.563 0-64.512-28.565-64.512-63.659v-555.371c0-35.093 28.949-63.637 64.512-63.637h809.643c35.584 0 64.512 28.544 64.512 63.637v555.371c0 35.093-28.928 63.659-64.512 63.659zM940.437 170.304c0-11.563-9.813-20.971-21.845-20.971h-809.643c-12.053 0-21.845 9.408-21.845 20.971v555.371c0 11.563 9.792 20.992 21.845 20.992h809.643c12.032 0 21.845-9.408 21.845-20.992v-555.371zM844.437 576h-298.667c-5.888 0-10.667-4.779-10.667-10.667s4.779-10.667 10.667-10.667h298.667c5.888 0 10.667 4.779 10.667 10.667s-4.757 10.667-10.667 10.667zM844.437 469.333h-298.667c-5.888 0-10.667-4.779-10.667-10.667s4.779-10.667 10.667-10.667h298.667c5.888 0 10.667 4.779 10.667 10.667s-4.757 10.667-10.667 10.667zM844.437 362.667h-298.667c-5.888 0-10.667-4.779-10.667-10.667s4.779-10.667 10.667-10.667h298.667c5.888 0 10.667 4.779 10.667 10.667s-4.757 10.667-10.667 10.667z"
         id="glyph424" />
      <glyph
         unicode=""
         glyph-name="Network"
         d="M919.701 682.347c-18.944 32.832-62.123 48.555-120.533 48.533-38.72 0-84.309-7.211-133.781-20.629-32.875 124.565-88.512 206.443-151.616 206.443s-118.741-81.877-151.616-206.443c-49.472 13.419-95.061 20.629-133.781 20.608-58.389 0-101.589-15.723-120.533-48.533-31.509-54.592 11.52-143.637 102.848-234.325-91.307-90.688-134.357-179.733-102.827-234.347 18.944-32.832 62.123-48.533 120.533-48.533 38.72 0 84.288 7.189 133.781 20.629 32.875-124.565 88.512-206.443 151.616-206.443s118.741 81.877 151.616 206.443c49.472-13.419 95.061-20.629 133.781-20.629 58.389 0 101.568 15.723 120.533 48.533 31.531 54.613-11.499 143.659-102.827 234.347 91.307 90.688 134.336 179.733 102.805 234.347zM799.189 688.235c43.115 0 73.579-9.92 83.563-27.2 11.264-19.52 3.904-64.619-50.581-132.651-13.632-17.024-29.227-34.133-46.4-51.157-27.883 24.939-59.328 49.707-93.547 73.685-3.648 41.728-9.429 81.365-17.109 118.059 45.504 12.459 87.765 19.264 124.075 19.264zM583.915 326.549c-23.339-13.483-46.763-25.6-70.123-37.013-23.36 11.413-46.784 23.531-70.123 37.013-23.317 13.461-45.717 27.584-67.264 42.091-1.749 25.408-2.859 51.733-2.859 79.36s1.109 53.952 2.859 79.381c21.547 14.485 43.947 28.608 67.264 42.091 23.339 13.483 46.763 25.579 70.123 37.013 23.36-11.413 46.784-23.531 70.123-37.013 23.317-13.461 45.717-27.584 67.264-42.091 1.749-25.429 2.859-51.733 2.859-79.381s-1.109-53.952-2.859-79.381c-21.568-14.485-43.947-28.608-67.264-42.069zM646.208 314.347c-3.2-26.56-7.339-51.499-12.16-74.901-22.997 7.701-46.72 17.109-70.677 27.349 13.931 7.317 27.883 14.741 41.856 22.805 13.995 8.064 27.669 16.341 40.981 24.747zM464.171 266.795c-23.957-10.24-47.68-19.648-70.677-27.349-4.8 23.403-8.939 48.32-12.16 74.901 13.312-8.405 26.987-16.661 40.96-24.747 14.016-8.085 27.947-15.488 41.877-22.805zM331.819 400.171c-20.885 15.637-40.555 31.637-58.816 47.829 18.261 16.192 37.952 32.192 58.816 47.829-0.64-15.723-0.939-31.68-0.939-47.829s0.299-32.107 0.939-47.829zM381.355 581.653c3.2 26.56 7.339 51.499 12.16 74.901 22.997-7.701 46.72-17.109 70.677-27.349-13.931-7.317-27.883-14.741-41.856-22.805-13.995-8.064-27.669-16.341-40.981-24.747zM563.392 629.205c23.957 10.24 47.659 19.648 70.677 27.328 4.8-23.403 8.939-48.32 12.16-74.88-13.312 8.405-26.987 16.661-40.96 24.747-14.016 8.085-27.947 15.488-41.877 22.805zM695.744 495.829c20.885-15.637 40.555-31.637 58.816-47.829-18.261-16.192-37.952-32.192-58.816-47.829 0.619 15.723 0.939 31.68 0.939 47.829s-0.299 32.107-0.939 47.829zM513.771 874.048c35.627 0 81.28-64.469 110.656-175.915-35.563-11.691-72.747-26.688-110.656-44.352-37.888 17.664-75.093 32.661-110.656 44.352 29.397 111.445 75.051 175.915 110.656 175.915zM144.811 661.013c9.984 17.28 40.448 27.2 83.584 27.2 36.288 0 78.549-6.805 124.053-19.264-7.68-36.693-13.461-76.331-17.109-118.059-34.219-23.979-65.664-48.747-93.547-73.685-17.173 17.024-32.768 34.133-46.4 51.157-54.485 68.053-61.845 113.152-50.581 132.651zM228.395 207.765c-43.136 0-73.6 9.92-83.584 27.2-11.264 19.52-3.904 64.619 50.581 132.651 13.632 17.024 29.227 34.133 46.4 51.157 27.883-24.939 59.328-49.707 93.547-73.685 3.648-41.728 9.429-81.365 17.109-118.059-45.504-12.459-87.765-19.264-124.053-19.264zM513.771 21.952c-35.627 0-81.28 64.448-110.656 175.915 35.563 11.691 72.747 26.688 110.656 44.352 37.888-17.664 75.093-32.661 110.656-44.352-29.355-111.445-75.029-175.915-110.656-175.915zM882.752 234.987c-9.984-17.301-40.448-27.2-83.584-27.2-36.309 0-78.549 6.805-124.053 19.285 7.68 36.693 13.461 76.331 17.109 118.059 34.219 23.979 65.664 48.747 93.547 73.685 17.173-17.024 32.768-34.133 46.4-51.157 54.485-68.075 61.845-113.173 50.581-132.672z"
         id="glyph426" />
      <glyph
         unicode=""
         glyph-name="DDS"
         d="M513.771 768c0 0-170.667-146.283-170.667-299.456 0-147.307 70.741-247.061 160-254.485v-107.392c0-5.888 4.779-10.667 10.667-10.667s10.667 4.779 10.667 10.667v107.392c89.259 7.424 160 107.179 160 254.485 0 153.195-170.667 299.456-170.667 299.456zM503.104 235.456c-79.744 8.064-138.667 105.429-138.667 233.088 0 107.413 93.12 214.123 138.667 259.904v-492.992zM524.437 235.456v493.056c45.547-45.696 138.667-152.299 138.667-259.947 0-127.68-58.901-225.045-138.667-233.109zM871.275 716.864l-309.845 176.555c-26.091 14.827-69.227 14.848-95.275 0l-309.845-176.555c-26.837-15.275-47.851-51.456-47.851-82.325v-373.077c0-30.891 21.013-67.051 47.851-82.325l309.845-176.555c13.013-7.424 29.931-11.52 47.616-11.52s34.603 4.075 47.637 11.52l309.845 176.555c26.837 15.296 47.829 51.456 47.829 82.325v373.099c0.021 30.848-20.971 67.008-47.808 82.304zM876.437 261.461c0-15.851-12.544-37.419-26.283-45.269l-309.845-176.533c-13.205-7.531-39.851-7.509-53.013 0l-309.867 176.555c-13.781 7.829-26.304 29.397-26.304 45.248v373.099c0 15.829 12.544 37.397 26.304 45.248l309.845 176.555c6.592 3.755 16.256 5.909 26.496 5.909s19.925-2.155 26.517-5.909l309.845-176.555c13.76-7.851 26.283-29.419 26.283-45.248v-373.099z"
         id="glyph428" />
      <glyph
         unicode=""
         glyph-name="ProjectMan"
         d="M355.563 480h-35.563c-25.493 0-46.229-20.736-46.229-46.229v-35.563c0-25.493 20.736-46.229 46.229-46.229h35.541c25.493 0 46.229 20.736 46.229 46.229v35.563c0 25.493-20.715 46.229-46.208 46.229zM380.437 398.229c0-13.739-11.157-24.896-24.896-24.896h-35.541c-13.739 0-24.896 11.157-24.896 24.896v35.563c0 13.717 11.157 24.896 24.896 24.896h35.541c13.739 0 24.896-11.157 24.896-24.896v-35.563zM355.563 672h-35.563c-25.493 0-46.229-20.736-46.229-46.229v-35.563c0-25.493 20.736-46.229 46.229-46.229h35.541c25.493 0 46.229 20.736 46.229 46.229v35.563c0 25.493-20.715 46.229-46.208 46.229zM380.437 590.229c0-13.739-11.157-24.896-24.896-24.896h-35.541c-13.739 0-24.896 11.157-24.896 24.896v35.563c0 13.717 11.157 24.896 24.896 24.896h35.541c13.739 0 24.896-11.157 24.896-24.896v-35.563zM743.104 586.667h-298.667c-5.888 0-10.667-4.779-10.667-10.667s4.779-10.667 10.667-10.667h298.667c5.888 0 10.667 4.779 10.667 10.667s-4.757 10.667-10.667 10.667zM743.104 394.667h-298.667c-5.888 0-10.667-4.779-10.667-10.667s4.779-10.667 10.667-10.667h298.667c5.888 0 10.667 4.779 10.667 10.667s-4.757 10.667-10.667 10.667zM743.104 650.667h-298.667c-5.888 0-10.667-4.779-10.667-10.667s4.779-10.667 10.667-10.667h298.667c5.888 0 10.667 4.779 10.667 10.667s-4.757 10.667-10.667 10.667zM855.104 853.333h-682.667c-35.285 0-64-28.715-64-64v-474.539c0-30.869 20.992-67.029 47.829-82.325l309.867-176.533c13.013-7.424 29.931-11.52 47.616-11.52s34.603 4.075 47.616 11.52l309.867 176.533c26.837 15.296 47.829 51.456 47.829 82.325v474.539c0.043 35.285-28.651 64-63.957 64zM876.437 314.795c0-15.829-12.544-37.397-26.283-45.269l-309.867-176.533c-13.163-7.509-39.829-7.509-52.992 0l-309.888 176.533c-13.76 7.851-26.283 29.419-26.283 45.269v474.539c0 11.755 9.557 21.333 21.333 21.333h682.667c11.776 0 21.333-9.579 21.333-21.333v-474.539zM743.104 458.667h-298.667c-5.888 0-10.667-4.779-10.667-10.667s4.779-10.667 10.667-10.667h298.667c5.888 0 10.667 4.779 10.667 10.667s-4.757 10.667-10.667 10.667z"
         id="glyph430" />
      <glyph
         unicode=""
         glyph-name="SMN"
         d="M759.104 469.333h-490.667c-5.888 0-10.667-4.779-10.667-10.667s4.779-10.667 10.667-10.667h490.667c5.888 0 10.667 4.779 10.667 10.667s-4.757 10.667-10.667 10.667zM759.104 597.333h-490.667c-5.888 0-10.667-4.779-10.667-10.667s4.779-10.667 10.667-10.667h490.667c5.888 0 10.667 4.779 10.667 10.667s-4.757 10.667-10.667 10.667zM855.104 789.333h-682.667c-35.285 0-64-28.715-64-64v-448c0-35.285 28.715-64 64-64h202.667c16.747 0 41.152-12.203 51.2-25.6l44.8-59.733c10.816-14.4 26.411-22.677 42.837-22.677 16.299 0 31.829 8.149 42.645 22.379l45.675 60.075c10.176 13.376 34.731 25.557 51.52 25.557h201.344c35.285 0 64 28.715 64 64v448c-0.021 35.285-28.715 64-64.021 64zM876.437 277.333c0-11.755-9.557-21.333-21.333-21.333h-201.344c-30.357 0-67.115-18.219-85.483-42.389l-45.675-60.075c-5.44-7.168-12.011-7.147-17.387 0.064l-44.8 59.733c-18.24 24.32-54.933 42.667-85.333 42.667h-202.667c-11.776 0-21.333 9.579-21.333 21.333v448c0 11.755 9.557 21.333 21.333 21.333h682.667c11.776 0 21.333-9.579 21.333-21.333v-448z"
         id="glyph432" />
      <glyph
         unicode=""
         glyph-name="VPC"
         d="M751.957 615.232c-34.709 100.245-129.685 172.331-241.728 172.331s-207.019-72.085-241.728-172.331c-128-14.144-227.605-122.56-227.605-254.336 0-141.376 114.624-256 256-256h426.667c141.376 0 256 114.624 256 256 0 131.776-99.605 240.192-227.605 254.336zM723.563 147.563h-426.667c-117.632 0-213.333 95.701-213.333 213.333 0 108.885 81.515 200 189.632 211.925 2.965 0.32 5.739 1.28 8.512 2.197l50.859-203.477c-8.64-5.739-14.336-15.531-14.336-26.645 0-17.664 14.336-32 32-32s32 14.336 32 32c0 5.248-1.387 10.133-3.627 14.507l140.032 148.267c3.968-1.749 8.32-2.773 12.928-2.773 17.664 0 32 14.336 32 32s-14.336 32-32 32c-11.008 0-20.736-5.589-26.496-14.059l-194.56 50.752c30.933 83.477 110.549 139.307 199.723 139.307 90.731 0 171.669-57.707 201.408-143.616 5.397-15.573 19.264-26.645 35.627-28.459 108.096-11.947 189.611-103.061 189.611-211.925 0.021-117.632-95.68-213.333-213.312-213.333zM300.928 586.027l198.891-51.883c0.363-4.224 1.515-8.171 3.349-11.755l-140.032-148.267c-3.051 1.365-6.379 2.133-9.856 2.475l-52.352 209.429z"
         id="glyph434" />
      <glyph
         unicode=""
         glyph-name="CES"
         d="M612.907 562.197l-62.144-62.144c-10.453 7.467-23.168 11.947-36.992 11.947-35.349 0-64-28.651-64-64s28.651-64 64-64 64 28.651 64 64c0 13.824-4.48 26.539-11.925 36.992l62.144 62.144c4.16 4.16 4.16 10.923 0 15.083s-10.923 4.16-15.083-0.021zM513.771 682.667c-129.6 0-234.667-105.067-234.667-234.667s105.067-234.667 234.667-234.667 234.667 105.067 234.667 234.667-105.045 234.667-234.667 234.667zM513.771 234.667c-117.632 0-213.333 95.701-213.333 213.333s95.701 213.333 213.333 213.333c117.632 0 213.333-95.701 213.333-213.333s-95.68-213.333-213.333-213.333zM513.771 810.667c-222.507 0-408.96-154.88-456.96-362.667 48-207.787 234.453-362.667 456.96-362.667s408.96 154.88 456.96 362.667c-48 207.787-234.453 362.667-456.96 362.667zM513.771 128c-196.416 0-364.864 131.093-413.035 320 48.171 188.907 216.619 320 413.035 320s364.885-131.093 413.056-320c-48.149-188.907-216.619-320-413.056-320z"
         id="glyph436" />
      <glyph
         unicode=""
         glyph-name="DNS"
         d="M316.885 575.787h-144.448v-256h144.448c26.219 0 47.552 22.592 47.552 50.347v155.307c0 27.776-21.333 50.347-47.552 50.347zM343.104 370.133c0-16-11.755-29.013-26.219-29.013h-123.115v213.333h123.115c14.464 0 26.219-13.013 26.219-29.013v-155.307zM620.437 575.787h-21.333v-234.773h-7.445c-22.613 0-33.067 6.549-39.979 25.045v0l-56.619 163.947c-4.245 11.349-17.152 45.888-60.309 45.888h-16.981v-0.107h-10.667v-256h21.333v234.773h6.315c19.029 0 30.187-9.152 38.485-31.317l56.619-163.947 10.944 3.243-10.88-3.499c10.048-26.859 29.653-39.381 61.717-39.381h28.779v256.128zM513.771 917.12c-258.795 0-469.333-210.539-469.333-469.333s210.539-469.333 469.333-469.333 469.333 210.539 469.333 469.333-210.539 469.333-469.333 469.333zM889.131 650.453h-150.613c-26.517 107.861-78.784 183.68-146.133 216.427 128.213-24 236.48-105.259 296.747-216.427zM716.437 650.453h-403.925c35.584 133.781 110.101 213.333 201.259 213.333 93.099 0 168.405-79.637 202.667-213.333zM436.864 867.136c-66.603-32.597-118.784-108.565-146.432-216.683h-152.021c60.523 111.659 169.515 193.088 298.453 216.683zM138.411 245.12h150.613c26.517-107.861 78.784-183.68 146.133-216.427-128.213 24-236.48 105.28-296.747 216.427zM311.104 245.12h403.947c-35.584-133.781-110.123-213.333-201.28-213.333-93.099 0-168.405 79.637-202.667 213.333zM590.677 28.437c66.603 32.597 118.805 108.565 146.453 216.683h152c-60.523-111.637-169.515-193.088-298.453-216.683zM128.128 266.453c-26.027 55.125-41.024 116.437-41.024 181.333s14.997 126.208 41.024 181.333h771.285c26.027-55.125 41.024-116.437 41.024-181.333s-14.997-126.208-41.024-181.333h-771.285zM808.768 469.12l-99.307 0.021c-13.867 0-25.173 13.013-25.173 29.013v27.285c0 16 11.285 29.013 25.173 29.013h145.643v21.333h-145.643c-25.643 0-46.507-22.592-46.507-50.347v-27.285c0-27.776 20.864-50.347 46.507-50.347l99.307-0.021c13.867 0 25.173-13.013 25.173-29.013v-48.619c0-16-11.285-29.013-25.173-29.013h-145.664v-21.333h145.664c25.643 0 46.507 22.592 46.507 50.347v48.619c-0.021 27.776-20.885 50.347-46.507 50.347z"
         id="glyph438" />
      <glyph
         unicode=""
         glyph-name="CCS"
         d="M396.459 362.667c-5.888 0-10.667-4.779-10.667-10.667s4.779-10.667 10.667-10.667h149.333c5.888 0 10.667 4.779 10.667 10.667s-4.757 10.667-10.667 10.667h-149.333zM727.125 565.333c0 5.888-4.779 10.667-10.667 10.667h-320c-5.888 0-10.667-4.779-10.667-10.667s4.779-10.667 10.667-10.667h320c5.909 0 10.667 4.779 10.667 10.667zM716.459 682.667h-320c-5.888 0-10.667-4.779-10.667-10.667s4.779-10.667 10.667-10.667h320c5.888 0 10.667 4.779 10.667 10.667s-4.757 10.667-10.667 10.667zM577.792 85.333h-341.333c-11.755 0-21.333 9.557-21.333 21.333v682.667c0 11.755 9.579 21.333 21.333 21.333h554.667c11.776 0 21.333-9.579 21.333-21.333v-341.333c0-11.776 9.536-21.333 21.333-21.333s21.333 9.557 21.333 21.333v341.333c0 35.285-28.715 64-64 64h-554.667c-35.285 0-64-28.715-64-64v-682.667c0-35.285 28.715-64 64-64h341.333c11.797 0 21.333 9.536 21.333 21.333s-9.536 21.333-21.333 21.333zM663.125 458.667c0 5.888-4.779 10.667-10.667 10.667h-256c-5.888 0-10.667-4.779-10.667-10.667s4.779-10.667 10.667-10.667h256c5.909 0 10.667 4.779 10.667 10.667zM332.459 682.667h-21.333c-5.888 0-10.667-4.779-10.667-10.667s4.779-10.667 10.667-10.667h21.333c5.888 0 10.667 4.779 10.667 10.667s-4.757 10.667-10.667 10.667zM759.125 298.667c-41.173 0-74.667-33.493-74.667-74.667s33.493-74.667 74.667-74.667 74.667 33.493 74.667 74.667-33.493 74.667-74.667 74.667zM759.125 170.667c-29.419 0-53.333 23.915-53.333 53.333s23.915 53.333 53.333 53.333c29.419 0 53.333-23.915 53.333-53.333s-23.915-53.333-53.333-53.333zM912.725 268.8h-22.485c-1.899 5.611-4.139 11.051-6.699 16.277l15.872 15.872c10.816 10.816 10.816 28.395 0 39.211l-24.149 24.149c-10.453 10.496-28.757 10.496-39.211 0l-15.872-15.872c-5.227 2.56-10.667 4.821-16.277 6.699v22.464c0 15.296-12.437 27.733-27.733 27.733h-34.133c-15.296 0-27.733-12.437-27.733-27.733v-22.485c-5.611-1.899-11.051-4.139-16.277-6.699l-15.872 15.872c-10.453 10.496-28.757 10.496-39.211 0l-24.149-24.149c-10.816-10.816-10.816-28.395 0-39.211l15.872-15.872c-2.56-5.227-4.821-10.667-6.699-16.277h-22.443c-15.296 0-27.733-12.437-27.733-27.733v-34.133c0-15.296 12.437-27.733 27.733-27.733h22.485c1.899-5.611 4.139-11.051 6.699-16.277l-15.872-15.872c-10.816-10.816-10.816-28.395 0-39.211l24.149-24.149c10.453-10.496 28.757-10.496 39.211 0l15.872 15.872c5.227-2.56 10.667-4.821 16.277-6.699v-22.443c0-15.296 12.437-27.733 27.733-27.733h34.133c15.296 0 27.733 12.437 27.733 27.733v22.485c5.611 1.899 11.051 4.139 16.277 6.699l15.872-15.872c10.453-10.496 28.757-10.496 39.211 0l24.149 24.149c10.816 10.816 10.816 28.395 0 39.211l-15.872 15.872c2.56 5.227 4.821 10.667 6.699 16.277h22.443c15.296 0 27.733 12.437 27.733 27.733v34.133c0 15.275-12.437 27.712-27.733 27.712zM919.125 206.933c0-3.52-2.88-6.4-6.4-6.4h-38.485l-2.176-7.829c-2.581-9.365-6.251-18.261-10.923-26.475l-4.011-7.061 27.179-27.179c2.496-2.496 2.496-6.549 0-9.045l-24.149-24.149c-2.411-2.411-6.635-2.411-9.045 0l-27.179 27.179-7.061-4.011c-8.213-4.672-17.109-8.341-26.475-10.923l-7.808-2.155v-38.485c0-3.52-2.88-6.4-6.4-6.4h-34.133c-3.52 0-6.4 2.88-6.4 6.4v38.485l-7.829 2.176c-9.365 2.581-18.261 6.251-26.475 10.923l-7.061 4.011-27.179-27.179c-2.411-2.411-6.635-2.411-9.045 0l-24.149 24.149c-2.496 2.496-2.496 6.549 0 9.045l27.179 27.179-4.011 7.061c-4.672 8.213-8.341 17.109-10.923 26.475l-2.155 7.808h-38.485c-3.52 0-6.4 2.88-6.4 6.4v34.133c0 3.52 2.88 6.4 6.4 6.4h38.485l2.176 7.829c2.581 9.365 6.251 18.261 10.923 26.475l4.011 7.061-27.179 27.179c-2.496 2.496-2.496 6.549 0 9.045l24.149 24.149c2.411 2.411 6.635 2.411 9.045 0l27.179-27.179 7.061 4.011c8.213 4.672 17.109 8.341 26.475 10.923l7.829 2.176v38.464c0 3.52 2.88 6.4 6.4 6.4h34.133c3.52 0 6.4-2.88 6.4-6.4v-38.485l7.829-2.176c9.365-2.581 18.261-6.251 26.475-10.923l7.061-4.011 27.179 27.179c2.411 2.411 6.635 2.411 9.045 0l24.149-24.149c2.496-2.496 2.496-6.549 0-9.045l-27.179-27.179 4.011-7.061c4.672-8.213 8.341-17.109 10.923-26.475l2.176-7.829h38.443c3.52 0 6.4-2.88 6.4-6.4v-34.112zM311.125 362.667c-5.888 0-10.667-4.779-10.667-10.667s4.779-10.667 10.667-10.667h21.333c5.888 0 10.667 4.779 10.667 10.667s-4.757 10.667-10.667 10.667h-21.333zM332.459 576h-21.333c-5.888 0-10.667-4.779-10.667-10.667s4.779-10.667 10.667-10.667h21.333c5.888 0 10.667 4.779 10.667 10.667s-4.757 10.667-10.667 10.667zM332.459 469.333h-21.333c-5.888 0-10.667-4.779-10.667-10.667s4.779-10.667 10.667-10.667h21.333c5.888 0 10.667 4.779 10.667 10.667s-4.757 10.667-10.667 10.667z"
         id="glyph440" />
      <glyph
         unicode=""
         glyph-name="CCE"
         d="M385.749 170.645h-149.333c-11.755 0-21.333 9.579-21.333 21.333v149.333c0 11.776-9.557 21.333-21.333 21.333s-21.333-9.557-21.333-21.333v-149.333c0-35.285 28.715-64 64-64h149.333c11.776 0 21.333 9.557 21.333 21.333s-9.557 21.333-21.333 21.333zM193.771 575.979c11.776 0 21.333 9.557 21.333 21.333v149.333c0 11.755 9.579 21.333 21.333 21.333h149.333c11.776 0 21.333 9.557 21.333 21.333s-9.557 21.333-21.333 21.333h-149.333c-35.285 0-64-28.715-64-64v-149.333c0-11.776 9.536-21.333 21.333-21.333zM791.104 810.645h-149.333c-11.776 0-21.333-9.557-21.333-21.333s9.557-21.333 21.333-21.333h149.333c11.755 0 21.333-9.579 21.333-21.333v-149.333c0-11.776 9.557-21.333 21.333-21.333s21.333 9.557 21.333 21.333v149.333c0 35.285-28.715 64-64 64zM833.771 362.645c-11.776 0-21.333-9.557-21.333-21.333v-149.333c0-11.755-9.579-21.333-21.333-21.333h-149.333c-11.776 0-21.333-9.557-21.333-21.333s9.557-21.333 21.333-21.333h149.333c35.285 0 64 28.715 64 64v149.333c0 11.776-9.557 21.333-21.333 21.333zM726.464 469.632c0 8.555-3.328 16.597-9.365 22.635l-181.013 181.035c-12.096 12.053-33.152 12.075-45.248 0l-181.013-181.013c-6.037-6.037-9.365-14.080-9.365-22.635 0-8.533 3.328-16.576 9.365-22.635l181.013-181.035c6.059-6.037 14.080-9.344 22.635-9.344s16.576 3.328 22.635 9.365l181.013 181.013c6.016 6.016 9.344 14.059 9.344 22.613zM702.016 462.080l-181.013-181.013c-4.011-4.032-11.072-4.032-15.083 0l-181.013 181.013c-2.005 2.027-3.115 4.693-3.115 7.552s1.109 5.525 3.115 7.552l181.013 181.013c2.005 2.027 4.693 3.115 7.552 3.115s5.525-1.109 7.552-3.115l181.013-181.013c2.005-2.027 3.115-4.693 3.115-7.552-0.021-2.859-1.131-5.525-3.136-7.552z"
         id="glyph442" />
      <glyph
         unicode=""
         glyph-name="CTS"
         d="M385.536 150.592h-76.48c-23.061 0-45.803 3.413-67.563 10.155-11.285 3.456-23.211-2.816-26.688-14.080s2.816-23.189 14.080-26.688c25.856-8 52.821-12.032 80.171-12.032h76.48c11.776 0 21.333 9.557 21.333 21.333s-9.536 21.312-21.333 21.312zM142.336 223.509c-9.557 10.475-18.133 21.867-25.472 33.92-9.28 15.232-16.619 31.509-21.803 48.405-3.477 11.285-15.509 17.621-26.667 14.123-11.264-3.456-17.579-15.403-14.123-26.667 6.229-20.267 15.040-39.808 26.155-58.048 8.768-14.379 19.008-28.011 30.421-40.491 9.515-10.411 19.925-20.096 30.912-28.821 3.925-3.115 8.597-4.608 13.248-4.608 6.293 0 12.523 2.773 16.725 8.085 7.317 9.237 5.76 22.656-3.477 29.973s-17.941 15.424-25.92 24.128zM65.813 374.080c10.688 0 19.947 8.043 21.163 18.944 2.261 19.968 7.339 39.509 15.083 58.048 7.979 19.115 18.731 37.035 31.957 53.291 7.424 9.131 6.059 22.571-3.072 29.995-9.131 7.445-22.571 6.080-30.016-3.072-15.829-19.435-28.693-40.896-38.251-63.787-9.301-22.272-15.381-45.717-18.091-69.696-1.323-11.712 7.104-22.272 18.795-23.595 0.811-0.107 1.621-0.128 2.432-0.128zM983.104 368.768c0 128.832-95.211 237.333-223.573 257.451-40.448 98.112-137.856 163.115-246.507 163.115s-206.059-65.003-246.507-163.093c-31.68-4.971-61.845-15.445-89.813-31.189-10.261-5.781-13.909-18.795-8.128-29.056 5.781-10.283 18.795-13.867 29.056-8.128 26.752 15.061 55.872 24.363 86.592 27.691 8.149 0.896 15.083 6.357 17.813 14.101 31.083 87.915 115.883 147.008 210.987 147.008s179.904-59.093 211.029-147.029c2.731-7.744 9.664-13.227 17.813-14.101 113.216-12.245 198.592-105.429 198.592-216.768 0-120.32-100.224-218.197-223.445-218.197h-161.856c-82.539 9.984-146.731 80.085-146.731 164.992 0 15.317 2.112 30.571 6.272 45.269l-41.152 11.563c-5.227-18.475-7.872-37.611-7.872-56.832 0-101.568 73.131-186.325 169.643-204.992 2.965-1.557 6.187-2.667 9.771-2.667h7.68c7.445-0.768 14.955-1.237 22.592-1.237v1.259h2.837c1.557-0.405 3.051-0.939 4.736-0.939h151.893c0.725 0 1.493 0.043 2.197 0.107l-0.085 1.835c137.429 10.048 246.165 122.603 246.165 259.84zM398.571 392.341l36.181 25.152 60.8-36.288 76.224 211.136-245.077-109.632 54.933-37.76 16.939-52.608z"
         id="glyph444" />
      <glyph
         unicode=""
         glyph-name="CloudVC"
         d="M513.664 458.667c11.776 0 21.333 9.557 21.333 21.333s-9.557 21.333-21.333 21.333-21.333-9.557-21.333-21.333 9.557-21.333 21.333-21.333zM513.664 554.667c-94.101 0-170.667-76.565-170.667-170.667s76.565-170.667 170.667-170.667 170.667 76.565 170.667 170.667-76.544 170.667-170.667 170.667zM513.664 234.667c-82.325 0-149.333 66.987-149.333 149.333s67.008 149.333 149.333 149.333 149.333-66.987 149.333-149.333-66.987-149.333-149.333-149.333zM513.664 437.333c-41.173 0-74.667-33.493-74.667-74.667s33.493-74.667 74.667-74.667 74.667 33.493 74.667 74.667-33.493 74.667-74.667 74.667zM513.664 309.333c-29.419 0-53.333 23.936-53.333 53.333s23.915 53.333 53.333 53.333 53.333-23.936 53.333-53.333-23.915-53.333-53.333-53.333zM751.851 615.232c-34.709 100.245-129.707 172.331-241.728 172.331-112.043 0-207.040-72.085-241.728-172.331-128-14.144-227.605-122.56-227.605-254.336 0-141.376 114.624-256 256-256h426.667c141.376 0 256 114.624 256 256 0 131.776-99.605 240.192-227.605 254.336zM723.456 147.563h-426.667c-117.632 0-213.333 95.701-213.333 213.333 0 108.885 81.515 199.979 189.611 211.925 16.384 1.813 30.251 12.885 35.627 28.459 29.739 85.909 110.677 143.616 201.408 143.616s171.669-57.707 201.408-143.616c5.397-15.573 19.264-26.645 35.627-28.459 108.096-11.947 189.632-103.061 189.632-211.925 0.021-117.632-95.68-213.333-213.312-213.333z"
         id="glyph446" />
      <glyph
         unicode=""
         glyph-name="CAE"
         d="M833.771 149.333h-640c-11.797 0-21.333-9.557-21.333-21.333s9.536-21.333 21.333-21.333h640c11.797 0 21.333 9.557 21.333 21.333s-9.536 21.333-21.333 21.333zM297.045 512.427l100.416 76.416c4.693 3.563 5.611 10.261 2.027 14.955-3.541 4.715-10.219 5.589-14.933 2.027l-111.552-84.885c-2.645-2.027-4.203-5.163-4.203-8.491s1.557-6.464 4.203-8.491l112-85.312c1.92-1.472 4.181-2.176 6.464-2.176 3.2 0 6.4 1.451 8.469 4.203 3.584 4.672 2.667 11.371-2.027 14.955l-100.864 76.8zM556.587 607.552c-5.355 2.347-11.691-0.043-14.059-5.44l-74.987-169.728c-2.389-5.397 0.043-11.691 5.44-14.080 1.387-0.619 2.88-0.896 4.309-0.896 4.075 0 8 2.368 9.749 6.357l74.987 169.728c2.411 5.376-0.043 11.669-5.44 14.059zM643.563 605.931c-4.715 3.563-11.392 2.667-14.933-2.027-3.584-4.693-2.667-11.371 2.027-14.955l100.416-76.416-100.864-76.821c-4.693-3.563-5.611-10.261-2.027-14.955 2.091-2.752 5.269-4.203 8.469-4.203 2.261 0 4.544 0.704 6.464 2.176l112 85.312c2.645 2.027 4.203 5.163 4.203 8.491s-1.557 6.464-4.203 8.491l-111.552 84.907zM855.104 789.333h-682.667c-35.285 0-64-28.715-64-64v-448c0-35.285 28.715-64 64-64h682.667c35.285 0 64 28.715 64 64v448c0 35.285-28.693 64-64 64zM876.437 277.333c0-11.755-9.557-21.333-21.333-21.333h-682.667c-11.776 0-21.333 9.579-21.333 21.333v448c0 11.755 9.557 21.333 21.333 21.333h682.667c11.776 0 21.333-9.579 21.333-21.333v-448z"
         id="glyph448" />
      <glyph
         unicode=""
         glyph-name="EVS"
         d="M727.104 917.333h-426.667c-70.4 0-128-57.6-128-128v-682.667c0-70.4 57.6-128 128-128h426.667c70.4 0 128 57.6 128 128v682.667c0 70.4-57.579 128-128 128zM811.904 106.667c0-46.763-38.037-84.8-84.8-84.8h-426.667c-46.763 0-84.8 38.037-84.8 84.8v682.667c0 46.763 38.037 84.8 84.8 84.8h426.667c46.763 0 84.8-38.037 84.8-84.8v-682.667zM300.629 821.333c-17.664 0-32-14.336-32-32s14.336-32 32-32c17.664 0 32 14.336 32 32s-14.336 32-32 32zM743.104 821.333c-17.664 0-32-14.336-32-32s14.336-32 32-32c17.664 0 32 14.336 32 32s-14.336 32-32 32zM607.083 509.483c-13.397 38.699-50.048 66.517-93.312 66.517s-79.915-27.819-93.312-66.517c-49.408-5.461-87.851-47.296-87.851-98.176 0-54.571 44.245-98.816 98.816-98.816h164.672c54.571 0 98.816 44.245 98.816 98.816 0.021 50.88-38.421 92.715-87.829 98.176zM596.117 333.845h-164.672c-42.731 0-77.483 34.752-77.483 77.483 0 39.531 29.611 72.619 68.864 76.971 8.192 0.896 15.125 6.443 17.813 14.229 10.795 31.189 40.192 52.139 73.131 52.139s62.336-20.971 73.131-52.16c2.688-7.787 9.621-13.312 17.813-14.229 39.253-4.331 68.864-37.419 68.864-76.971 0.021-42.709-34.731-77.461-77.461-77.461z"
         id="glyph450" />
      <glyph
         unicode=""
         glyph-name="VBS"
         d="M833.771 789.333c0 11.776-9.557 21.333-21.333 21.333s-21.333-9.557-21.333-21.333c0-11.776 9.557-21.333 21.333-21.333s21.333 9.557 21.333 21.333zM494.379 447.573c-9.472 25.067-33.472 43.093-65.941 43.093-30.549 0-56.469-18.027-65.92-43.072-34.901-3.541-62.080-30.635-62.080-63.595 0-35.349 31.253-64 69.824-64h116.352c38.571 0 69.824 28.651 69.824 64 0 32.939-27.157 60.053-62.059 63.573zM486.635 341.333h-116.352c-26.731 0-48.491 19.136-48.491 42.667 0 21.675 18.432 39.893 42.88 42.368 8.043 0.811 14.955 6.123 17.813 13.696 6.613 17.493 25.088 29.269 45.952 29.269 21.845 0 39.040-10.944 45.973-29.291 2.859-7.573 9.749-12.864 17.813-13.696 24.448-2.475 42.88-20.693 42.88-42.368 0-23.509-21.739-42.645-48.469-42.645zM268.437 704c-17.664 0-32-14.336-32-32s14.336-32 32-32c17.664 0 32 14.336 32 32 0 17.643-14.336 32-32 32zM759.104 448c-5.888 0-10.667-4.779-10.667-10.667s4.779-10.667 10.667-10.667c30.4 0 53.333 27.584 53.333 64.171 0 31.979-22.827 59.968-51.968 63.744-5.952 0.768-11.2-3.371-11.968-9.216s3.371-11.2 9.216-11.968c18.411-2.368 33.365-21.483 33.365-42.581 0.021-24.405-13.739-42.816-31.979-42.816zM588.437 704c-17.664 0-32-14.336-32-32s14.336-32 32-32c17.664 0 32 14.336 32 32 0 17.643-14.336 32-32 32zM608.448 800h-360c-59.392 0-108.011-45.824-108.011-101.824v-543.040c0-56 48.597-101.824 108.011-101.824h360c59.392 0 108.011 45.824 108.011 101.824v543.040c-0.021 56-48.619 101.824-108.011 101.824zM673.771 155.157c0-32.619-29.312-59.157-65.344-59.157h-359.979c-36.032 0-65.344 26.539-65.344 59.157v543.019c0 32.619 29.312 59.157 65.344 59.157h360c36.032 0 65.344-26.539 65.344-59.157v-543.019zM804.075 874.667h-333.717c-19.2 0-51.563-7.147-61.995-26.859-2.752-5.205-0.768-11.648 4.437-14.421 5.248-2.752 11.648-0.768 14.421 4.437 4.288 8.107 24.853 15.509 43.136 15.509h333.739c50.048 0 72.363-23.851 72.363-77.333v-560c0-49.216-18.944-66.667-72.363-66.667h-42.325c-5.888 0-10.667-4.779-10.667-10.667s4.779-10.667 10.667-10.667h42.325c65.685 0 93.696 26.304 93.696 88v560c-0.021 65.472-31.531 98.667-93.717 98.667z"
         id="glyph452" />
      </font>
</defs>
</svg>
